Чемпионат Шотландии 2015-16 / Championship / 3-й тур / Обзор матчей / Eleven В HD [26.08.2015, H.264, 1080, 25 fps, BE/FR, HDTV]

Ответить на тему

Автор Сообщение

K. Valera


Стаж: 4 года 7 месяцев

Сообщений: 781

Украина

Торрент-статистика

post 26-Авг-2015 16:58

Quote


Чемпионат Шотландии 2015-16 / Championship / 3-й тур / Обзор матчей / Eleven В HD

Год выпуска: 26.08.2015
Вид спорта: Футбол
Релиз:
Aвтор рипа: K. Valera
Продолжительность: 00:26:02
Комментарий: Профессиональный
Язык комментариев: Бельгийский, Французский
Канал:
Качество: HDTV / Формат: *.ts / Видео Кодек: AVC / Аудио Кодек: MPEG Audio
Видео: 1920x1080 (16/9), 25,000 fps, 6.6 Мбит/сек
Аудио 1: 192 Kbps, 48 KHz, MPEG mp2 2.0 channels (Бельгийский)
Аудио 2: 192 Kbps, 48 KHz, MPEG mp2 2.0 channels (Французский)
Запись видео: Openbox SX6 HD
Программа корректировки видео: Cypheros TS-Doctor ver. 1.2.22

Код:

General
ID                             : 5000 (0x1388)
Complete name                  : D:\111\Ladbrokes Championship 3 26.08.2015.ts
Format                         : MPEG-TS
File size                      : 1.21 GiB
Duration                       : 26mn 1s
Overall bit rate mode          : Variable
Overall bit rate               : 6 628 Kbps

Video
ID                             : 5001 (0x1389)
Menu ID                        : 13788 (0x35DC)
Format                         : AVC
Format/Info                    : Advanced Video Codec
Format profile                 : High@L4
Format settings, CABAC         : Yes
Format settings, ReFrames      : 4 frames
Format settings, GOP           : M=4, N=13
Codec ID                       : 27
Duration                       : 26mn 1s
Bit rate                       : 5 913 Kbps
Width                          : 1 920 pixels
Height                         : 1 080 pixels
Display aspect ratio           : 16:9
Frame rate                     : 25.000 fps
Color space                    : YUV
Chroma subsampling             : 4:2:0
Bit depth                      : 8 bits
Scan type                      : Interlaced
Scan order                     : Top Field First
Bits/(Pixel*Frame)             : 0.114
Stream size                    : 1.07 GiB (89%)
Color range                    : Limited
Color primaries                : BT.709
Transfer characteristics       : BT.709
Matrix coefficients            : BT.709

Audio #1
ID                             : 5002 (0x138A)
Menu ID                        : 13788 (0x35DC)
Format                         : MPEG Audio
Format version                 : Version 1
Format profile                 : Layer 2
Codec ID                       : 4
Duration                       : 26mn 1s
Bit rate mode                  : Constant
Bit rate                       : 192 Kbps
Channel(s)                     : 2 channels
Sampling rate                  : 48.0 KHz
Compression mode               : Lossy
Delay relative to video        : -750ms
Stream size                    : 35.7 MiB (3%)

Audio #2
ID                             : 5003 (0x138B)
Menu ID                        : 13788 (0x35DC)
Format                         : MPEG Audio
Format version                 : Version 1
Format profile                 : Layer 2
Codec ID                       : 4
Duration                       : 26mn 1s
Bit rate mode                  : Constant
Bit rate                       : 192 Kbps
Channel(s)                     : 2 channels
Sampling rate                  : 48.0 KHz
Compression mode               : Lossy
Delay relative to video        : -750ms
Stream size                    : 35.7 MiB (3%)

_________________
webmoney: R102437980674, U865336828210, Bitcoin: 1C5RGE4438bq3VfVUEfcw63rmYrb6Sgr29. Файлы не конвертирую. Готов реанимировать почти все свои раздачи.
Profile PM
Ответить на тему