Чемпионат Бразилии 2015 / Footbrazil / Обзор 25-го тура / Digi Sport 2 HD [16.09.2015, 1080i, H.264, RO, HDTV, SAT]

Ответить на тему

Автор Сообщение

K. Valera


Стаж: 4 года 7 месяцев

Сообщений: 781

Украина

Торрент-статистика

post 17-Сен-2015 13:12

Quote


Чемпионат Бразилии 2015 / Footbrazil / Обзор 25-го тура / Digi Sport 2 HD

Год выпуска: 16.09.2015
Вид спорта: Футбол
Релиз:
Aвтор рипа: K. Valera
Продолжительность: 00:27:20
Комментарий: Профессиональный
Язык комментариев: Румынский
Канал:
Качество: HDTV / Формат: *.ts / Видео Кодек: AVC / Аудио Кодек: MPEG
Видео: 1920x1080 (16/9), 25,000 fps, 9.8 Мбит/сек
Аудио 1: 128 Kbps, 48 KHz, MPEG mp2 2.0 channels (Румынский)
Запись видео: Openbox SX6 HD
Программа корректировки видео: Cypheros TS-Doctor ver. 1.2.22

Код:

General
ID                             : 13 (0xD)
Complete name                  : D:\111\Footbrazil 25 2015.ts
Format                         : MPEG-TS
File size                      : 1.88 GiB
Duration                       : 27mn 20s
Overall bit rate mode          : Variable
Overall bit rate               : 9 834 Kbps

Video
ID                             : 702 (0x2BE)
Menu ID                        : 4080 (0xFF0)
Format                         : AVC
Format/Info                    : Advanced Video Codec
Format version                 : Version 2
Format profile                 : High@L4
Format settings, CABAC         : Yes
Format settings, ReFrames      : 4 frames
Format settings, GOP           : M=4, N=32
Codec ID                       : 27
Duration                       : 27mn 20s
Bit rate                       : 9 219 Kbps
Maximum bit rate               : 44.0 Kbps
Width                          : 1 920 pixels
Height                         : 1 080 pixels
Display aspect ratio           : 16:9
Frame rate                     : 25.000 fps
Color space                    : YUV
Chroma subsampling             : 4:2:0
Bit depth                      : 8 bits
Scan type                      : Interlaced
Scan order                     : Top Field First
Bits/(Pixel*Frame)             : 0.178
Stream size                    : 1.76 GiB (94%)
Color range                    : Limited
Color primaries                : BT.709
Transfer characteristics       : BT.709
Matrix coefficients            : BT.709

Audio
ID                             : 703 (0x2BF)
Menu ID                        : 4080 (0xFF0)
Format                         : MPEG Audio
Format version                 : Version 1
Format profile                 : Layer 2
Codec ID                       : 4
Duration                       : 27mn 20s
Bit rate mode                  : Constant
Bit rate                       : 128 Kbps
Maximum bit rate               : 132 Kbps
Channel(s)                     : 2 channels
Sampling rate                  : 48.0 KHz
Compression mode               : Lossy
Delay relative to video        : 110ms
Stream size                    : 25.0 MiB (1%)
Language                       : English

Menu
ID                             : 701 (0x2BD)
Menu ID                        : 4080 (0xFF0)
Duration                       : 27mn 20s
List                           : 702 (0x2BE) (AVC) / 703 (0x2BF) (MPEG Audio, English)
Language                       :  / English
Maximum bit rate               : 12162800

_________________
webmoney: R102437980674, U865336828210, Bitcoin: 1C5RGE4438bq3VfVUEfcw63rmYrb6Sgr29. Файлы не конвертирую. Готов реанимировать почти все свои раздачи.
Profile PM
Ответить на тему