Чемпионат Бельгии 2015-16 / Жюпиле Про-лига / 7-й тур / Обзор тура / Digi Sport 1 HD [17.09.2015, 1080i, H.264, MPEG, RO, HDTV, SAT]

Ответить на тему

Автор Сообщение

K. Valera


Стаж: 4 года 7 месяцев

Сообщений: 781

Украина

Торрент-статистика

post 18-Сен-2015 11:33

Quote


Чемпионат Бельгии 2015-16 / Жюпиле Про-лига / 7-й тур / Обзор тура / Digi Sport 1 HD

Год выпуска: 17.09.2015
Вид спорта: Футбол
Релиз:
Aвтор рипа: K. Valera
Продолжительность: 00:25:27
Комментарий: Профессиональный
Язык комментариев: Румынский
Канал:
Качество: HDTV / Формат: *.ts / Видео Кодек: AVC / Аудио Кодек: MPEG
Видео: 1920x1080 (16/9), 25,000 fps, 10.6 Мбит/сек
Аудио: 128 Kbps, 48 KHz, MPEG mp2 2.0 channels (Румынский)
Запись видео: Openbox SX6 HD
Программа корректировки видео: Cypheros TS-Doctor ver. 1.2.22

Код:

General
ID                             : 13 (0xD)
Complete name                  : D:\111\Rezumat Belgia Pro League 7 round 2015.ts
Format                         : MPEG-TS
File size                      : 1.92 GiB
Duration                       : 25mn 57s
Overall bit rate mode          : Variable
Overall bit rate               : 10.6 Mbps

Video
ID                             : 602 (0x25A)
Menu ID                        : 4070 (0xFE6)
Format                         : AVC
Format/Info                    : Advanced Video Codec
Format version                 : Version 2
Format profile                 : Main@L4
Format settings, CABAC         : Yes
Format settings, ReFrames      : 4 frames
Format settings, GOP           : M=3, N=12
Codec ID                       : 27
Duration                       : 25mn 57s
Bit rate                       : 9 949 Kbps
Maximum bit rate               : 44.0 Kbps
Width                          : 1 920 pixels
Height                         : 1 080 pixels
Display aspect ratio           : 16:9
Frame rate                     : 25.000 fps
Color space                    : YUV
Chroma subsampling             : 4:2:0
Bit depth                      : 8 bits
Scan type                      : Interlaced
Scan order                     : Top Field First
Bits/(Pixel*Frame)             : 0.192
Stream size                    : 1.80 GiB (94%)
Color range                    : Limited
Color primaries                : BT.709
Transfer characteristics       : BT.709
Matrix coefficients            : BT.709

Audio
ID                             : 603 (0x25B)
Menu ID                        : 4070 (0xFE6)
Format                         : MPEG Audio
Format version                 : Version 1
Format profile                 : Layer 2
Codec ID                       : 4
Duration                       : 25mn 57s
Bit rate mode                  : Constant
Bit rate                       : 128 Kbps
Maximum bit rate               : 132 Kbps
Channel(s)                     : 2 channels
Sampling rate                  : 48.0 KHz
Compression mode               : Lossy
Delay relative to video        : 69ms
Stream size                    : 23.8 MiB (1%)
Language                       : English

Menu
ID                             : 601 (0x259)
Menu ID                        : 4070 (0xFE6)
Duration                       : 25mn 57s
List                           : 602 (0x25A) (AVC) / 603 (0x25B) (MPEG Audio, English)
Language                       :  / English
Maximum bit rate               : 12162800

_________________
webmoney: R102437980674, U865336828210, Bitcoin: 1C5RGE4438bq3VfVUEfcw63rmYrb6Sgr29. Файлы не конвертирую. Готов реанимировать почти все свои раздачи.
Profile PM
Ответить на тему