Чемпионат Норвегии 2014-15 / Tippeligaen + OBOS-ligaen / Fotballkveld 24 runde / Обзор 24-го тура / TV 2 Sportskanalen HD [20.09.2015, 720p, 50 fps, H.264, MPEG, NOR, HDTV, SAT]

Ответить на тему

Автор Сообщение

K. Valera


Стаж: 4 года 7 месяцев

Сообщений: 781

Украина

Торрент-статистика

post 21-Сен-2015 10:41

Quote


Чемпионат Норвегии 2014-15 / Tippeligaen + OBOS-ligaen / Fotballkveld 24 runde / Обзор 24-го тура / TV 2 Sportskanalen HD

Год выпуска: 20.09.2015
Вид спорта: Футбол
Релиз:
Aвтор рипа: K. Valera
Продолжительность: 00:47:12
Канал:
Комментарий: Профессиональный
Язык комментариев: Норвежский
Качество: HDTV / Формат: *.ts / Видео Кодек: AVC / Аудио Кодек: MPEG
Видео: 1280x720 (16/9), 50,000 fps, 6,7 Мбит/сек
Аудио: 256 Kbps, 48 KHz, MPEG, mp2 2.0 channels
Запись видео: Openbox SX6 HD
Программа корректировки видео: Cypheros TS-Doctor ver. 1.2.22

Код:

General
ID                             : 68 (0x44)
Complete name                  : D:\111\Fotballkveld 24 Runde 20.09.2015.ts
Format                         : MPEG-TS
File size                      : 2.40 GiB
Duration                       : 47mn 12s
Overall bit rate mode          : Variable
Overall bit rate               : 7 291 Kbps

Video
ID                             : 1277 (0x4FD)
Menu ID                        : 7078 (0x1BA6)
Format                         : AVC
Format/Info                    : Advanced Video Codec
Format profile                 : High@L4
Format settings, CABAC         : Yes
Format settings, ReFrames      : 4 frames
Codec ID                       : 27
Duration                       : 47mn 12s
Bit rate                       : 6 672 Kbps
Width                          : 1 280 pixels
Height                         : 720 pixels
Display aspect ratio           : 16:9
Frame rate                     : 50.000 fps
Color space                    : YUV
Chroma subsampling             : 4:2:0
Bit depth                      : 8 bits
Scan type                      : Progressive
Bits/(Pixel*Frame)             : 0.145
Stream size                    : 2.20 GiB (92%)

Audio
ID                             : 3381 (0xD35)
Menu ID                        : 7078 (0x1BA6)
Format                         : MPEG Audio
Format version                 : Version 1
Format profile                 : Layer 2
Mode                           : Joint stereo
Mode extension                 : Intensity Stereo + MS Stereo
Codec ID                       : 3
Duration                       : 47mn 11s
Bit rate mode                  : Constant
Bit rate                       : 256 Kbps
Channel(s)                     : 2 channels
Sampling rate                  : 48.0 KHz
Compression mode               : Lossy
Delay relative to video        : 75ms
Stream size                    : 86.4 MiB (4%)
Language                       : Norwegian

_________________
webmoney: R102437980674, U865336828210, Bitcoin: 1C5RGE4438bq3VfVUEfcw63rmYrb6Sgr29. Файлы не конвертирую. Готов реанимировать почти все свои раздачи.
Profile PM
Ответить на тему