Чемпионат Бельгии 2015-16 / Жюпиле Про-лига / 8-й тур / Обзор тура / Arena Sport 1 HD [21.09.2015, 1080i, H.264, CRO, HDTV, SAT]

Ответить на тему

Автор Сообщение

K. Valera


Стаж: 4 года 7 месяцев

Сообщений: 781

Украина

Торрент-статистика

post 23-Сен-2015 13:31

Quote


Чемпионат Бельгии 2015-16 / Жюпиле Про-лига / 8-й тур / Обзор тура / Arena Sport 1 HD

Год выпуска: 21.09.2015
Вид спорта: Футбол
Релиз:
Aвтор рипа: K. Valera
Продолжительность: 00:27:13
Канал:
Комментарий: Профессиональный
Язык комментариев: Хорватский
Качество: HDTV / Формат: *.ts / Видео Кодек: AVC / Аудио Кодек: MPEG
Видео: 1920x1080 (16/9), 25,000 fps, 6.2 Мбит/сек
Аудио: 128 Kbps, 48 KHz, MPEG, mp2 2.0 channels
Запись видео: Openbox SX6 HD
Программа корректировки видео: Cypheros TS-Doctor ver. 1.2.22

Код:

General
ID                             : 3 (0x3)
Complete name                  : F:\PREGLED 8 KOLA BELGIJSKE LIGE.ts
Format                         : MPEG-TS
File size                      : 1.28 GiB
Duration                       : 27mn 12s
Overall bit rate mode          : Variable
Overall bit rate               : 6 755 Kbps

Video
ID                             : 2843 (0xB1B)
Menu ID                        : 412 (0x19C)
Format                         : AVC
Format/Info                    : Advanced Video Codec
Format profile                 : High@L4.0
Format settings, CABAC         : Yes
Format settings, ReFrames      : 4 frames
Codec ID                       : 27
Duration                       : 27mn 11s
Bit rate                       : 6 292 Kbps
Width                          : 1 920 pixels
Height                         : 1 080 pixels
Display aspect ratio           : 16:9
Frame rate                     : 25.000 fps
Standard                       : Component
Color space                    : YUV
Chroma subsampling             : 4:2:0
Bit depth                      : 8 bits
Scan type                      : Interlaced
Scan order                     : Top Field First
Bits/(Pixel*Frame)             : 0.121
Stream size                    : 1.20 GiB (93%)
Color primaries                : BT.709
Transfer characteristics       : BT.709
Matrix coefficients            : BT.709
Color range                    : Limited

Audio
ID                             : 2587 (0xA1B)
Menu ID                        : 412 (0x19C)
Format                         : MPEG Audio
Format version                 : Version 1
Format profile                 : Layer 2
Codec ID                       : 4
Duration                       : 27mn 12s
Bit rate mode                  : Constant
Bit rate                       : 128 Kbps
Channel(s)                     : 2 channels
Sampling rate                  : 48.0 KHz
Compression mode               : Lossy
Delay relative to video        : -1s 288ms
Stream size                    : 24.9 MiB (2%)

_________________
webmoney: R102437980674, U865336828210, Bitcoin: 1C5RGE4438bq3VfVUEfcw63rmYrb6Sgr29. Файлы не конвертирую. Готов реанимировать почти все свои раздачи.


Последний раз редактировалось: K. Valera (2015-09-29 00:07), всего редактировалось 1 раз
Profile PM

Lamin80


Стаж: 3 года 9 месяцев

Сообщений: 243

Откуда: Горловка Донецкая Народная Республика

Россия

Торрент-статистика

post 23-Сен-2015 22:11 (спустя 8 часов)

Quote


Валерон, а че 25 прогрессивные?
Profile PM

K. Valera


Стаж: 4 года 7 месяцев

Сообщений: 781

Украина

Торрент-статистика

post 23-Сен-2015 22:30 (спустя 19 минут)

Quote


Interlaced написано. Я не конвертирую, выкладываю в оригинале. Хорватам ещё рано в прогрессиве транслировать. Хотя, там ошибок нахватало, может поэтому тебя что-то смущает?

_________________
webmoney: R102437980674, U865336828210, Bitcoin: 1C5RGE4438bq3VfVUEfcw63rmYrb6Sgr29. Файлы не конвертирую. Готов реанимировать почти все свои раздачи.
Profile PM

Lamin80


Стаж: 3 года 9 месяцев

Сообщений: 243

Откуда: Горловка Донецкая Народная Республика

Россия

Торрент-статистика

post 24-Сен-2015 14:03 (спустя 15 часов)

Quote


не получается сделать 50 fps именно с обзоров Бельгии....тупо дублируются одинаковые кадры, значит это бока хорватов)))
ощущения что делаешь 50p из 25p(
Profile PM
Ответить на тему