Чемпионат Бразилии 2015 / 31-й тур / Highlights Brasileirao 2015 Jornada 31 / Обзор матчей / Canal+ HD [21.10.2015, H.264, 1080i, SP, HDTV, SAT]

Ответить на тему

Автор Сообщение

K. Valera


Стаж: 4 года 7 месяцев

Сообщений: 781

Украина

Торрент-статистика

post 21-Окт-2015 10:30

Quote


Чемпионат Бразилии 2015 / 31-й тур / Highlights Brasileirao 2015 Jornada 31 / Обзор матчей / Canal+ HD

Год выпуска: 21.10.2015
Вид спорта: Футбол
Релиз:
Aвтор рипа: K. Valera
Продолжительность: 00:29:22
Комментарий: Профессиональный
Язык комментариев: Испанский
Канал:
Качество: HDTV / Формат: *.ts / Видео Кодек: AVC / Аудио Кодек: AC-3
Видео: 1440x1080 (16/9), 25,000 fps, 6 149 Kbps
Аудио 1: 192 Kbps, 48 KHz, Dolby AC3 2.0 channels, CBR (Spanish)
Аудио 2: 192 Kbps, 48 KHz, Dolby AC3 2.0 channels, CBR (Spanish)
Запись видео: Openbox SX6 HD
Программа корректировки видео: Cypheros TS-Doctor ver. 1.2.22

Код:

General
ID                             : 1044 (0x414)
Complete name                  : D:\111\Highlights Brasileirao 2015 Jornada 31.ts
Format                         : MPEG-TS
File size                      : 1.41 GiB
Duration                       : 29mn 23s
Overall bit rate mode          : Variable
Overall bit rate               : 6 877 Kbps

Video
ID                             : 165 (0xA5)
Menu ID                        : 30860 (0x788C)
Format                         : AVC
Format/Info                    : Advanced Video Codec
Format profile                 : High@L4
Format settings, CABAC         : Yes
Format settings, ReFrames      : 4 frames
Codec ID                       : 27
Duration                       : 29mn 22s
Bit rate                       : 6 149 Kbps
Width                          : 1 440 pixels
Height                         : 1 080 pixels
Display aspect ratio           : 16:9
Frame rate                     : 25.000 fps
Color space                    : YUV
Chroma subsampling             : 4:2:0
Bit depth                      : 8 bits
Scan type                      : MBAFF
Scan order                     : Top Field First
Bits/(Pixel*Frame)             : 0.158
Stream size                    : 1.26 GiB (89%)
Encryption                     : Nagravision
Color range                    : Limited
Color primaries                : BT.709
Transfer characteristics       : BT.709
Matrix coefficients            : BT.709

Audio #1
ID                             : 110 (0x6E)
Menu ID                        : 30860 (0x788C)
Format                         : AC-3
Format/Info                    : Audio Coding 3
Mode extension                 : CM (complete main)
Format settings, Endianness    : Big
Codec ID                       : 6
Duration                       : 29mn 21s
Bit rate mode                  : Constant
Bit rate                       : 192 Kbps
Channel(s)                     : 2 channels
Channel positions              : Front: L R
Sampling rate                  : 48.0 KHz
Bit depth                      : 16 bits
Compression mode               : Lossy
Stream size                    : 40.3 MiB (3%)
Language                       : Spanish
Language, more info            : Clean effects
Encryption                     : Nagravision

Audio #2
ID                             : 111 (0x6F)
Menu ID                        : 30860 (0x788C)
Format                         : AC-3
Format/Info                    : Audio Coding 3
Mode extension                 : CM (complete main)
Format settings, Endianness    : Big
Codec ID                       : 6
Duration                       : 29mn 21s
Bit rate mode                  : Constant
Bit rate                       : 192 Kbps
Channel(s)                     : 2 channels
Channel positions              : Front: L R
Sampling rate                  : 48.0 KHz
Bit depth                      : 16 bits
Compression mode               : Lossy
Delay relative to video        : 18ms
Stream size                    : 40.3 MiB (3%)
Language                       : qaa
Encryption                     : Nagravision

_________________
webmoney: R102437980674, U865336828210, Bitcoin: 1C5RGE4438bq3VfVUEfcw63rmYrb6Sgr29. Файлы не конвертирую. Готов реанимировать почти все свои раздачи.
Profile PM
Ответить на тему