Чемпионат Норвегии 2014-15 / Tippeligaen + OBOS-ligaen / Fotballkveld 29 runde / Обзор 29-го тура / TV 2 Sportskanalen HD [01.11.2015, 720p, 50 fps, H.264, MPEG, NOR, HDTV, SAT]

Ответить на тему

Автор Сообщение

K. Valera


Стаж: 4 года 7 месяцев

Сообщений: 781

Украина

Торрент-статистика

post 02-Ноя-2015 11:33

Quote


Чемпионат Норвегии 2014-15 / Tippeligaen + OBOS-ligaen / Fotballkveld 29 runde / Обзор 29-го тура / TV 2 Sportskanalen HD

Год выпуска: 01.11.2015
Вид спорта: Футбол
Релиз:
Aвтор рипа: K. Valera
Продолжительность: 00:46:20
Канал:
Комментарий: Профессиональный
Язык комментариев: Норвежский
Качество: HDTV / Формат: *.ts / Видео Кодек: AVC / Аудио Кодек: MPEG
Видео: 1280x720 (16/9), 50,000 fps, 7 429 Kbps
Аудио: 256 Kbps, 48 KHz, MPEG, mp2 2.0 channels
Запись видео: U2C S+ MiniHD
Программа корректировки видео: Cypheros TS-Doctor ver. 1.2.22

Код:

General
ID                             : 68 (0x44)
Complete name                  : E:\Fotballkveld 29 Runde 01.11.2015.ts
Format                         : MPEG-TS
File size                      : 2.62 GiB
Duration                       : 46mn 19s
Overall bit rate mode          : Variable
Overall bit rate               : 8 088 Kbps

Video
ID                             : 1277 (0x4FD)
Menu ID                        : 7078 (0x1BA6)
Format                         : AVC
Format/Info                    : Advanced Video Codec
Format profile                 : High@L4
Format settings, CABAC         : Yes
Format settings, ReFrames      : 4 frames
Codec ID                       : 27
Duration                       : 46mn 19s
Bit rate                       : 7 429 Kbps
Width                          : 1 280 pixels
Height                         : 720 pixels
Display aspect ratio           : 16:9
Frame rate                     : 50.000 fps
Color space                    : YUV
Chroma subsampling             : 4:2:0
Bit depth                      : 8 bits
Scan type                      : Progressive
Bits/(Pixel*Frame)             : 0.161
Stream size                    : 2.40 GiB (92%)

Audio
ID                             : 3381 (0xD35)
Menu ID                        : 7078 (0x1BA6)
Format                         : MPEG Audio
Format version                 : Version 1
Format profile                 : Layer 2
Mode                           : Joint stereo
Mode extension                 : Intensity Stereo + MS Stereo
Codec ID                       : 3
Duration                       : 46mn 18s
Bit rate mode                  : Constant
Bit rate                       : 256 Kbps
Channel(s)                     : 2 channels
Sampling rate                  : 48.0 KHz
Compression mode               : Lossy
Delay relative to video        : 85ms
Stream size                    : 84.8 MiB (3%)
Language                       : Norwegian

_________________
webmoney: R102437980674, U865336828210, Bitcoin: 1C5RGE4438bq3VfVUEfcw63rmYrb6Sgr29. Файлы не конвертирую. Готов реанимировать почти все свои раздачи.


Последний раз редактировалось: K. Valera (2015-11-09 19:26), всего редактировалось 1 раз
Profile PM

Evgendo


Стаж: 4 года 4 месяца

Сообщений: 92

Бразилия

Торрент-статистика

post 03-Ноя-2015 00:32 (спустя 12 часов)

Quote


спасибо, а можно аргентину и турцию =) в аргентине чемпионат почти закончился как никак
Profile PM

Proctor


Стаж: 4 года 7 месяцев

Сообщений: 130

Украина

Торрент-статистика

post 03-Ноя-2015 03:43 (спустя 3 часа)

Quote


Evgendo

как закончился? в аргентине только 29 туров сыграно, а там сейчас 30 команд выступает. ТО есть пол турнира только сыграно
Profile PM

Pepperoni


Стаж: 6 лет

Сообщений: 3322

Откуда: Milan

Италия

Торрент-статистика

post 03-Ноя-2015 10:05 (спустя 6 часов)

Quote


Proctor писал(а):

Evgendo

как закончился? в аргентине только 29 туров сыграно, а там сейчас 30 команд выступает. ТО есть пол турнира только сыграно
Как раз таки 30 туров в этом сезоне. 29 туров + 1 отдельный. 29 туров уже сыграли, и там уже всё понятно.

_________________
Profile PM

Evgendo


Стаж: 4 года 4 месяца

Сообщений: 92

Бразилия

Торрент-статистика

post 03-Ноя-2015 17:54 (спустя 7 часов)

Quote


Proctor писал(а):

Evgendo

как закончился? в аргентине только 29 туров сыграно, а там сейчас 30 команд выступает. ТО есть пол турнира только сыграно
Pepperoni всё верно написал. в 29 туре бока оформила досрочное чемпионство на бомбонере
Profile PM
Ответить на тему