Чемпионат Турции 2015-16 / 10-й тур / Her Şeye Değer. Futbol HD / Обзор матчей тура / TRT HD [02.11.2015, 1080i, H.264, TUR, AC-3 5.1, HDTV, SAT]

Ответить на тему

Автор Сообщение

K. Valera


Стаж: 4 года 7 месяцев

Сообщений: 780

Украина

Торрент-статистика

post 03-Ноя-2015 11:40

Quote


Чемпионат Турции 2015-16 / 10-й тур / Her Şeye Değer. Futbol HD / Обзор матчей тура / TRT HD

Год выпуска: 02.11.2015
Вид спорта: Футбол
Релиз:
Aвтор рипа: K. Valera
Продолжительность: 00:59:50
Канал:
Комментарий: Профессиональный
Язык комментариев: Турецкий
Качество: HDTV / Формат: *.ts / Видео Кодек: AVC / Аудио Кодек: MPEG, AC-3
Видео: 1920x1080 (16/9), 25,000 fps, 10.8 Mbps
Аудио 1: 384 Kbps, 48 KHz, Dolby AC-3 5.1 channels Турецкий
Аудио 2: 192 Kbps, 48 KHz, MPEG mp2 2.0 channels, Турецкий
Запись видео: Openbox SX6 HD
Программа корректировки видео: Cypheros TS-Doctor ver. 1.2.22

Код:

General
ID                             : 31001 (0x7919)
Complete name                  : E:\FUTBOL HD 10 round 02.11.2015 TRT HD.ts
Format                         : MPEG-TS
File size                      : 5.00 GiB
Duration                       : 59mn 50s
Overall bit rate mode          : Variable
Overall bit rate               : 12.0 Mbps

Video
ID                             : 1600 (0x640)
Menu ID                        : 10600 (0x2968)
Format                         : AVC
Format/Info                    : Advanced Video Codec
Format profile                 : High@L4
Format settings, CABAC         : Yes
Format settings, ReFrames      : 4 frames
Codec ID                       : 27
Duration                       : 59mn 49s
Bit rate                       : 10.8 Mbps
Width                          : 1 920 pixels
Height                         : 1 080 pixels
Display aspect ratio           : 16:9
Frame rate                     : 25.000 fps
Color space                    : YUV
Chroma subsampling             : 4:2:0
Bit depth                      : 8 bits
Scan type                      : MBAFF
Scan order                     : Top Field First
Bits/(Pixel*Frame)             : 0.208
Stream size                    : 4.51 GiB (90%)

Audio #1
ID                             : 1700 (0x6A4)
Menu ID                        : 10600 (0x2968)
Format                         : AC-3
Format/Info                    : Audio Coding 3
Mode extension                 : CM (complete main)
Format settings, Endianness    : Big
Codec ID                       : 6
Duration                       : 59mn 50s
Bit rate mode                  : Constant
Bit rate                       : 384 Kbps
Channel(s)                     : 6 channels
Channel positions              : Front: L C R, Side: L R, LFE
Sampling rate                  : 48.0 KHz
Bit depth                      : 16 bits
Compression mode               : Lossy
Delay relative to video        : -1s 138ms
Stream size                    : 164 MiB (3%)
Language                       : Turkish

Audio #2
ID                             : 1800 (0x708)
Menu ID                        : 10600 (0x2968)
Format                         : MPEG Audio
Format version                 : Version 1
Format profile                 : Layer 2
Codec ID                       : 3
Duration                       : 59mn 50s
Bit rate mode                  : Constant
Bit rate                       : 192 Kbps
Channel(s)                     : 2 channels
Sampling rate                  : 48.0 KHz
Compression mode               : Lossy
Delay relative to video        : -1s 163ms
Stream size                    : 82.2 MiB (2%)
Language                       : English

_________________
webmoney: R102437980674, U865336828210, Bitcoin: 1C5RGE4438bq3VfVUEfcw63rmYrb6Sgr29. Файлы не конвертирую. Готов реанимировать почти все свои раздачи.
Profile PM

Vile


Стаж: 2 года 11 месяцев

Сообщений: 15

Россия

Торрент-статистика

post 05-Дек-2015 11:11 (спустя 1 месяц 1 день)

Quote


Спасибо! Может у вас завалялся обзор 13 тура?
Profile PM

K. Valera


Стаж: 4 года 7 месяцев

Сообщений: 780

Украина

Торрент-статистика

post 06-Дек-2015 18:12 (спустя 1 день 7 часов)

Quote


Нет такого. Пока в коммандировке, надеюсь, недельки через две буду на месте, тогда и будут обзоры.

_________________
webmoney: R102437980674, U865336828210, Bitcoin: 1C5RGE4438bq3VfVUEfcw63rmYrb6Sgr29. Файлы не конвертирую. Готов реанимировать почти все свои раздачи.
Profile PM
Ответить на тему