Чемпионат Шотландии 2015-16 / Premiership / 18-й тур / Обзор матчей / SETANTA Sports [15.12.2015, HD, 1080i, H264, EN, SAT]

Ответить на тему

Автор Сообщение

Chameleon


Стаж: 6 лет

Сообщений: 3701

Откуда: Tyumen

Россия

Торрент-статистика

post 18-Дек-2015 19:08

Quote




Страна: Шотландия.
Турнир: Чемпионат Шотландии 2015-16. Premiership. 18-й тур. Обзор матчей.
Тип передачи: Обзор матчей.
Дата матча: 15.12.2015
Телеканал: SETANTA Sports
Язык комментариев: English
Продолжительность: ***
Формат видео: TS
Видео кодек, разрешение, ...: H264, 1920x1080, 6 860 kbps, 25 fps
Аудио кодек, ...: MP2, 192 kbps, 2 ch, 48 kHz
Автор: Chameleon
Format : MPEG-TS
File size : 1.35 GiB
Duration : 4s 980ms
Overall bit rate mode : Variable
Overall bit rate : 7 602 Kbps

Video
ID : 70 (0x46)
Menu ID : 1 (0x1)
Format : AVC
Format/Info : Advanced Video Codec
Format profile : High@L4
Format settings, CABAC : Yes
Format settings, ReFrames : 3 frames
Codec ID : 27
Duration : 4s 360ms
Bit rate mode : Constant
Bit rate : 6 860 Kbps
Width : 1 920 pixels
Height : 1 080 pixels
Display aspect ratio : 16:9
Frame rate : 25.000 fps
Color space : YUV
Chroma subsampling : 4:2:0
Bit depth : 8 bits
Scan type : MBAFF
Scan order : Top Field First
Bits/(Pixel*Frame) : 0.132
Stream size : 3.55 MiB (0%)
Color range : Limited
Color primaries : BT.709
Transfer characteristics : BT.709
Matrix coefficients : BT.709

Audio #1
ID : 68 (0x44)
Menu ID : 1 (0x1)
Format : MPEG Audio
Format version : Version 1
Format profile : Layer 2
Codec ID : 3
Duration : 5s 40ms
Bit rate mode : Constant
Bit rate : 192 Kbps
Channel(s) : 2 channels
Sampling rate : 48.0 KHz
Compression mode : Lossy
Stream size : 118 KiB (0%)

Audio #2
ID : 69 (0x45)
Menu ID : 1 (0x1)
Format : MPEG Audio
Format version : Version 1
Format profile : Layer 2
Codec ID : 3
Duration : 5s 16ms
Bit rate mode : Constant
Bit rate : 192 Kbps
Channel(s) : 2 channels
Sampling rate : 48.0 KHz
Compression mode : Lossy
Stream size : 118 KiB (0%)

00:25:36

Скриншоты:

_________________
Насчет матчей чемпионата Аргентины, Бразилии, Южной Кореи и других лиг пишите в ЛС.
Profile PM
Ответить на тему