Чемпионат Бельгии 2015-16 / Pro League / 19-й тур / Обзор матчей / SETANTA Sports [15.12.2015, HD, 1080i, H264, RU, SAT]

Ответить на тему

Автор Сообщение

Chameleon


Стаж: 6 лет

Сообщений: 3696

Откуда: Tyumen

Россия

Торрент-статистика

post 18-Дек-2015 19:38

Quote




Страна: Бельгия.
Турнир: Чемпионат Бельгии 2015-16. Pro League. 19-й тур.
Тип передачи: Обзор матчей.
Дата матча: 15.12.2015
Телеканал: SETANTA Sports
Язык комментариев: Русский
Продолжительность: ***
Формат видео: TS
Видео кодек, разрешение, ...: H264, 1920x1080, 6 860 kbps, 25 fps
Аудио кодек, ...: MP2, 192 kbps, 2 ch, 48 kHz
Автор: Chameleon
Format : MPEG-TS
File size : 1.37 GiB
Duration : 28mn 20s
Overall bit rate mode : Variable
Overall bit rate : 6 902 Kbps

Video
ID : 70 (0x46)
Menu ID : 1 (0x1)
Format : AVC
Format/Info : Advanced Video Codec
Format profile : High@L4
Format settings, CABAC : Yes
Format settings, ReFrames : 3 frames
Codec ID : 27
Duration : 28mn 20s
Bit rate mode : Constant
Bit rate : 6 173 Kbps
Nominal bit rate : 6 860 Kbps
Width : 1 920 pixels
Height : 1 080 pixels
Display aspect ratio : 16:9
Frame rate : 25.000 fps
Color space : YUV
Chroma subsampling : 4:2:0
Bit depth : 8 bits
Scan type : MBAFF
Scan order : Top Field First
Bits/(Pixel*Frame) : 0.119
Stream size : 1.22 GiB (89%)
Color range : Limited
Color primaries : BT.709
Transfer characteristics : BT.709
Matrix coefficients : BT.709

Audio #1
ID : 68 (0x44)
Menu ID : 1 (0x1)
Format : MPEG Audio
Format version : Version 1
Format profile : Layer 2
Codec ID : 3
Duration : 28mn 20s
Bit rate mode : Constant
Bit rate : 192 Kbps
Channel(s) : 2 channels
Sampling rate : 48.0 KHz
Compression mode : Lossy
Delay relative to video : -16ms
Stream size : 38.9 MiB (3%)

Audio #2
ID : 69 (0x45)
Menu ID : 1 (0x1)
Format : MPEG Audio
Format version : Version 1
Format profile : Layer 2
Codec ID : 3
Duration : 28mn 20s
Bit rate mode : Constant
Bit rate : 192 Kbps
Channel(s) : 2 channels
Sampling rate : 48.0 KHz
Compression mode : Lossy
Delay relative to video : -16ms
Stream size : 38.9 MiB (3%)

00:28:20

Скриншоты:

_________________
Насчет матчей чемпионата Аргентины, Бразилии, Южной Кореи и других лиг пишите в ЛС.
Profile PM

Pepperoni


Стаж: 6 лет

Сообщений: 3310

Откуда: Milan

Италия

Торрент-статистика

post 18-Дек-2015 19:41 (спустя 3 минуты)

Quote


Во-первых это не SAT. Во-вторых Вы забыли вырезать рекламу, оригинальный обзор идёт 26:06.

_________________
Profile PM

Chameleon


Стаж: 6 лет

Сообщений: 3696

Откуда: Tyumen

Россия

Торрент-статистика

post 18-Дек-2015 19:45 (спустя 3 минуты)

Quote


Pepperoni
Спасибо, не забыл)

_________________
Насчет матчей чемпионата Аргентины, Бразилии, Южной Кореи и других лиг пишите в ЛС.
Profile PM

Pepperoni


Стаж: 6 лет

Сообщений: 3310

Откуда: Milan

Италия

Торрент-статистика

post 18-Дек-2015 19:46 (спустя 48 секунд)

Quote


Chameleon писал(а):

Pepperoni
Спасибо, не забыл)
Тогда поправьте продолжительность, пожалуйста.

_________________
Profile PM

Chameleon


Стаж: 6 лет

Сообщений: 3696

Откуда: Tyumen

Россия

Торрент-статистика

post 18-Дек-2015 19:47 (спустя 1 минута)

Quote


Pepperoni
Media Info в помощь. Если нет, то скачайте и посмотрите.

_________________
Насчет матчей чемпионата Аргентины, Бразилии, Южной Кореи и других лиг пишите в ЛС.
Profile PM

Pepperoni


Стаж: 6 лет

Сообщений: 3310

Откуда: Milan

Италия

Торрент-статистика

post 18-Дек-2015 19:51 (спустя 4 минуты)

Quote


Chameleon писал(а):

Pepperoni
Media Info в помощь. Если нет, то скачайте и посмотрите.
Ну а как он у Вас может быть 28 минут, если я писал во вторник и он шёл 26 минут. Мне медиаинфо не нужны, исходники все на диске лежат.

_________________
Profile PM

Lamin80


Стаж: 3 года 9 месяцев

Сообщений: 243

Откуда: Горловка Донецкая Народная Республика

Россия

Торрент-статистика

post 19-Дек-2015 04:07 (спустя 8 часов)

Quote


Fight!!!
Profile PM
Ответить на тему