Чемпионат Турции 2015-16 / 17-й тур / Her Şeye Değer. Futbol HD / Обзор матчей тура / TRT HD [29.12.2015, 1080i, H.264, TUR, AC-3 5.1, HDTV, SAT]

Ответить на тему

Автор Сообщение

K. Valera


Стаж: 4 года 7 месяцев

Сообщений: 781

Украина

Торрент-статистика

post 29-Дек-2015 16:08

Quote


Чемпионат Турции 2015-16 / 17-й тур / Her Şeye Değer. Futbol HD / Обзор матчей тура / TRT HD

Год выпуска: 29.12.2015
Вид спорта: Футбол
Релиз:
Aвтор рипа: K. Valera
Продолжительность: 01:00:19
Канал:
Комментарий: Профессиональный
Язык комментариев: Турецкий
Качество: HDTV / Формат: *.ts / Видео Кодек: AVC / Аудио Кодек: MPEG, AC-3
Видео: 1920x1080 (16/9), 25,000 fps, 11.9 Mbps
Аудио 1: 384 Kbps, 48 KHz, Dolby AC-3 5.1 channels Турецкий
Аудио 2: 192 Kbps, 48 KHz, MPEG mp2 2.0 channels, Турецкий
Запись видео: Openbox SX6 HD
Программа корректировки видео: Cypheros TS-Doctor ver. 1.2.22

Код:

General
ID                             : 31001 (0x7919)
Complete name                  : D:\111\FUTBOL HD 17 round 29.12.2015 TRT HD.ts
Format                         : MPEG-TS
File size                      : 5.55 GiB
Duration                       : 1h 0mn
Overall bit rate mode          : Variable
Overall bit rate               : 13.2 Mbps

Video
ID                             : 1600 (0x640)
Menu ID                        : 10600 (0x2968)
Format                         : AVC
Format/Info                    : Advanced Video Codec
Format profile                 : High@L4
Format settings, CABAC         : Yes
Format settings, ReFrames      : 4 frames
Codec ID                       : 27
Duration                       : 1h 0mn
Bit rate                       : 11.9 Mbps
Width                          : 1 920 pixels
Height                         : 1 080 pixels
Display aspect ratio           : 16:9
Frame rate                     : 25.000 fps
Color space                    : YUV
Chroma subsampling             : 4:2:0
Bit depth                      : 8 bits
Scan type                      : MBAFF
Scan order                     : Top Field First
Bits/(Pixel*Frame)             : 0.230
Stream size                    : 5.03 GiB (91%)

Audio #1
ID                             : 1700 (0x6A4)
Menu ID                        : 10600 (0x2968)
Format                         : AC-3
Format/Info                    : Audio Coding 3
Mode extension                 : CM (complete main)
Format settings, Endianness    : Big
Codec ID                       : 6
Duration                       : 1h 0mn
Bit rate mode                  : Constant
Bit rate                       : 384 Kbps
Channel(s)                     : 6 channels
Channel positions              : Front: L C R, Side: L R, LFE
Sampling rate                  : 48.0 KHz
Bit depth                      : 16 bits
Compression mode               : Lossy
Delay relative to video        : -1s 65ms
Stream size                    : 166 MiB (3%)
Language                       : Turkish

Audio #2
ID                             : 1800 (0x708)
Menu ID                        : 10600 (0x2968)
Format                         : MPEG Audio
Format version                 : Version 1
Format profile                 : Layer 2
Codec ID                       : 3
Duration                       : 1h 0mn
Bit rate mode                  : Constant
Bit rate                       : 192 Kbps
Channel(s)                     : 2 channels
Sampling rate                  : 48.0 KHz
Compression mode               : Lossy
Delay relative to video        : -1s 59ms
Stream size                    : 82.8 MiB (1%)
Language                       : English

Код:

00:07:14.597 ; 00:00:00.697 ; 4
00:14:13.982 ; 00:00:00.711 ; 3
00:28:28.997 ; 00:00:00.576 ; 3
00:55:50.110 ; 00:00:00.512 ; 2

_________________
webmoney: R102437980674, U865336828210, Bitcoin: 1C5RGE4438bq3VfVUEfcw63rmYrb6Sgr29. Файлы не конвертирую. Готов реанимировать почти все свои раздачи.


Последний раз редактировалось: K. Valera (2016-01-19 15:02), всего редактировалось 3 раз(а)
Profile PM

Evgendo


Стаж: 4 года 4 месяца

Сообщений: 92

Бразилия

Торрент-статистика

post 29-Дек-2015 20:52 (спустя 4 часа)

Quote


о пасиба
Profile PM

Lamin80


Стаж: 3 года 9 месяцев

Сообщений: 243

Откуда: Горловка Донецкая Народная Республика

Россия

Торрент-статистика

post 30-Дек-2015 17:49 (спустя 20 часов)

Quote


давненько обзора Пенсионерляндии не было)
Profile PM

OlleQwist


Стаж: 6 лет

Сообщений: 27

Откуда: липецк

Россия

Торрент-статистика

post 31-Дек-2015 12:53 (спустя 19 часов)

Quote


дайте скорости пжлста 63
Profile PM

OlleQwist


Стаж: 6 лет

Сообщений: 27

Откуда: липецк

Россия

Торрент-статистика

post 31-Дек-2015 13:49 (спустя 56 минут)

Quote


дайте скачать 66
Profile PM
Ответить на тему