Чемпионат Турции 2015-16 / 18-й тур / Her Şeye Değer. Futbol HD / Обзор матчей тура / TRT HD [18.01.2016, 1080i, H.264, TUR, AC-3 5.1, HDTV, SAT]

Ответить на тему

Автор Сообщение

K. Valera


Стаж: 4 года 7 месяцев

Сообщений: 781

Украина

Торрент-статистика

post 19-Янв-2016 15:28

Quote


Чемпионат Турции 2015-16 / 18-й тур / Her Şeye Değer. Futbol HD / Обзор матчей тура / TRT HD

Год выпуска: 18.01.2016
Вид спорта: Футбол
Релиз:
Aвтор рипа: K. Valera
Продолжительность: 00:59:17
Канал:
Комментарий: Профессиональный
Язык комментариев: Турецкий
Качество: HDTV / Формат: *.ts / Видео Кодек: AVC / Аудио Кодек: MPEG, AC-3
Видео: 1920x1080 (16/9), 25,000 fps, 11.9 Mbps
Аудио 1: 384 Kbps, 48 KHz, Dolby AC-3 5.1 channels Турецкий
Аудио 2: 192 Kbps, 48 KHz, MPEG mp2 2.0 channels, Турецкий
Запись видео: Openbox SX6 HD
Программа корректировки видео: Cypheros TS-Doctor ver. 1.2.22

Код:

General
ID                             : 31001 (0x7919)
Complete name                  : D:\111\Futbol HD 18 round 18.01.2016.ts
Format                         : MPEG-TS
File size                      : 5.43 GiB
Duration                       : 59mn 16s
Overall bit rate mode          : Variable
Overall bit rate               : 13.1 Mbps

Video
ID                             : 1600 (0x640)
Menu ID                        : 10600 (0x2968)
Format                         : AVC
Format/Info                    : Advanced Video Codec
Format profile                 : High@L4
Format settings, CABAC         : Yes
Format settings, ReFrames      : 4 frames
Format settings, GOP           : M=4, N=24
Codec ID                       : 27
Duration                       : 59mn 16s
Bit rate                       : 11.9 Mbps
Width                          : 1 920 pixels
Height                         : 1 080 pixels
Display aspect ratio           : 16:9
Frame rate                     : 25.000 fps
Color space                    : YUV
Chroma subsampling             : 4:2:0
Bit depth                      : 8 bits
Scan type                      : MBAFF
Scan order                     : Top Field First
Bits/(Pixel*Frame)             : 0.229
Stream size                    : 4.92 GiB (91%)

Audio #1
ID                             : 1700 (0x6A4)
Menu ID                        : 10600 (0x2968)
Format                         : AC-3
Format/Info                    : Audio Coding 3
Mode extension                 : CM (complete main)
Format settings, Endianness    : Big
Codec ID                       : 6
Duration                       : 59mn 16s
Bit rate mode                  : Constant
Bit rate                       : 384 Kbps
Channel(s)                     : 6 channels
Channel positions              : Front: L C R, Side: L R, LFE
Sampling rate                  : 48.0 KHz
Compression mode               : Lossy
Delay relative to video        : -973ms
Stream size                    : 163 MiB (3%)
Language                       : Turkish

Audio #2
ID                             : 1800 (0x708)
Menu ID                        : 10600 (0x2968)
Format                         : MPEG Audio
Format version                 : Version 1
Format profile                 : Layer 2
Codec ID                       : 3
Duration                       : 59mn 16s
Bit rate mode                  : Constant
Bit rate                       : 192 Kbps
Channel(s)                     : 2 channels
Sampling rate                  : 48.0 KHz
Compression mode               : Lossy
Delay relative to video        : -1s 23ms
Stream size                    : 81.4 MiB (1%)
Language                       : English
Скриншоты

Код:

00:07:09.828 ; 00:00:00.046 ; 2
00:14:24.849 ; 00:00:00.562 ; 3
00:23:15.460 ; 00:00:00.384 ; 3
00:23:15.921 ; 00:00:02.053 ; 5
00:25:14.577 ; 00:00:01.714 ; 2
00:25:16.401 ; 00:00:01.042 ; 2
00:25:17.553 ; 00:00:00.018 ; 2
00:25:18.084 ; 00:00:00.046 ; 2
00:25:18.212 ; 00:00:00.110 ; 2
00:25:18.801 ; 00:00:00.384 ; 6
00:25:19.236 ; 00:00:00.046 ; 2
00:25:19.364 ; 00:00:00.110 ; 2
00:25:19.620 ; 00:00:00.128 ; 2
00:25:19.953 ; 00:00:00.050 ; 2
00:25:20.260 ; 00:00:00.078 ; 2
00:25:20.433 ; 00:00:00.082 ; 2
00:25:20.625 ; 00:00:00.018 ; 2
-24:26:58.076 ; 00:00:00.000 ; 2

_________________
webmoney: R102437980674, U865336828210, Bitcoin: 1C5RGE4438bq3VfVUEfcw63rmYrb6Sgr29. Файлы не конвертирую. Готов реанимировать почти все свои раздачи.


Последний раз редактировалось: K. Valera (2016-01-25 23:04), всего редактировалось 2 раз(а)
Profile PM

K. Valera


Стаж: 4 года 7 месяцев

Сообщений: 781

Украина

Торрент-статистика

post 19-Янв-2016 15:29 (спустя 1 минута)

Quote


Сегодня ещё обзор первой Лиги (PTT 1. Lig Analiz) будет, надо?

_________________
webmoney: R102437980674, U865336828210, Bitcoin: 1C5RGE4438bq3VfVUEfcw63rmYrb6Sgr29. Файлы не конвертирую. Готов реанимировать почти все свои раздачи.
Profile PM

Evgendo


Стаж: 4 года 4 месяца

Сообщений: 92

Бразилия

Торрент-статистика

post 19-Янв-2016 17:07 (спустя 1 час 37 минут)

Quote


K. Valera писал(а):

Сегодня ещё обзор первой Лиги (PTT 1. Lig Analiz) будет, надо?
да тоже можно
Profile PM

K. Valera


Стаж: 4 года 7 месяцев

Сообщений: 781

Украина

Торрент-статистика

post 19-Янв-2016 18:28 (спустя 1 час 21 минута)

Quote


Evgendo писал(а):

да тоже можно
Ох уж эти бразильцы! Там гигабайт 7 будет, полтора часа передача. av

_________________
webmoney: R102437980674, U865336828210, Bitcoin: 1C5RGE4438bq3VfVUEfcw63rmYrb6Sgr29. Файлы не конвертирую. Готов реанимировать почти все свои раздачи.
Profile PM

K. Valera


Стаж: 4 года 7 месяцев

Сообщений: 781

Украина

Торрент-статистика

post 19-Янв-2016 18:50 (спустя 21 минута)

Quote


Там потом Кубок Турции будет Акхисар – Галатасарай.

_________________
webmoney: R102437980674, U865336828210, Bitcoin: 1C5RGE4438bq3VfVUEfcw63rmYrb6Sgr29. Файлы не конвертирую. Готов реанимировать почти все свои раздачи.
Profile PM

Evgendo


Стаж: 4 года 4 месяца

Сообщений: 92

Бразилия

Торрент-статистика

post 19-Янв-2016 23:45 (спустя 4 часа)

Quote


K. Valera писал(а):

Evgendo писал(а):

да тоже можно
Ох уж эти бразильцы! Там гигабайт 7 будет, полтора часа передача. av
ого
Profile PM

K. Valera


Стаж: 4 года 7 месяцев

Сообщений: 781

Украина

Торрент-статистика

post 20-Янв-2016 00:07 (спустя 22 минуты)

Quote


Чуть меньше, на 6 ГБ кабан будет, сейчас выложу. И Галатасарай дописываю.

_________________
webmoney: R102437980674, U865336828210, Bitcoin: 1C5RGE4438bq3VfVUEfcw63rmYrb6Sgr29. Файлы не конвертирую. Готов реанимировать почти все свои раздачи.
Profile PM
Ответить на тему