Чемпионат Турции. 1-я лига 2015-16 / 18-й тур / PTT 1. Lig Analiz 18 Hafta / TRT SPOR HD [19.01.2016, 1080i, H.264, TUR, HDTV, SAT]

Ответить на тему

Автор Сообщение

K. Valera


Стаж: 4 года 7 месяцев

Сообщений: 781

Украина

Торрент-статистика

post 20-Янв-2016 00:18

Quote


Чемпионат Турции. 1-я лига 2015-16 / 18-й тур / PTT 1. Lig Analiz 18 Hafta / TRT SPOR HD

Год выпуска: 19.01.2016
Вид спорта: Футбол
Релиз:
Aвтор рипа: K. Valera
Продолжительность: 01:26:27
Канал:
Комментарий: Профессиональный
Язык комментариев: Турецкий
Качество: HDTV / Формат: *.ts / Видео Кодек: AVC / Аудио Кодек: MPEG
Видео: 1920x1080 (16/9), 25,000 fps, 8 838 Kbps
Аудио: 192 Kbps, 48 KHz, MPEG, mp2 2.0 channels
Запись видео: Openbox SX6 HD
Программа корректировки видео: Cypheros TS-Doctor ver. 1.2.22

Код:

General
ID                             : 31001 (0x7919)
Complete name                  : D:\111\PTT 1. Lig Analiz 18 Hafta TRT SPOR HD.ts
Format                         : MPEG-TS
File size                      : 5.74 GiB
Duration                       : 1h 26mn
Overall bit rate mode          : Variable
Overall bit rate               : 9 501 Kbps

Video
ID                             : 1603 (0x643)
Menu ID                        : 10603 (0x296B)
Format                         : AVC
Format/Info                    : Advanced Video Codec
Format profile                 : High@L4
Format settings, CABAC         : Yes
Format settings, ReFrames      : 4 frames
Codec ID                       : 27
Duration                       : 1h 26mn
Bit rate                       : 8 838 Kbps
Width                          : 1 920 pixels
Height                         : 1 080 pixels
Display aspect ratio           : 16:9
Frame rate                     : 25.000 fps
Color space                    : YUV
Chroma subsampling             : 4:2:0
Bit depth                      : 8 bits
Scan type                      : MBAFF
Scan order                     : Top Field First
Bits/(Pixel*Frame)             : 0.170
Stream size                    : 5.34 GiB (93%)

Audio
ID                             : 1703 (0x6A7)
Menu ID                        : 10603 (0x296B)
Format                         : MPEG Audio
Format version                 : Version 1
Format profile                 : Layer 2
Codec ID                       : 3
Duration                       : 1h 26mn
Bit rate mode                  : Constant
Bit rate                       : 192 Kbps
Channel(s)                     : 2 channels
Sampling rate                  : 48.0 KHz
Compression mode               : Lossy
Delay relative to video        : 96ms
Stream size                    : 119 MiB (2%)
Language                       : Turkish
Скриншоты

_________________
webmoney: R102437980674, U865336828210, Bitcoin: 1C5RGE4438bq3VfVUEfcw63rmYrb6Sgr29. Файлы не конвертирую. Готов реанимировать почти все свои раздачи.


Последний раз редактировалось: K. Valera (2016-01-25 23:04), всего редактировалось 1 раз
Profile PM

Evgendo


Стаж: 4 года 4 месяца

Сообщений: 92

Бразилия

Торрент-статистика

post 20-Янв-2016 02:09 (спустя 1 час 51 минута)

Quote


посмотрим
Profile PM
Ответить на тему