Чемпионат Хорватии 2015-16 / 21 тур / MAXtv Prva liga / Arena Sport 3 HD [19.01.2016, 1080i, H.264, CRO, HDTV, SAT]

Ответить на тему

Автор Сообщение

K. Valera


Стаж: 4 года 7 месяцев

Сообщений: 781

Украина

Торрент-статистика

post 20-Янв-2016 12:39

Quote


Чемпионат Хорватии 2015-16 / 21 тур / MAXtv Prva liga / Arena Sport 3 HD

Год выпуска:19.01.2016
Вид спорта: Футбол
Релиз:
Aвтор рипа: K. Valera
Продолжительность: 00:32:00
Канал:
Комментарий: Профессиональный
Язык комментариев: Хорватский
Качество: HDTV / Формат: *.ts / Видео Кодек: AVC / Аудио Кодек: MPEG
Видео: 1920x1080 (16/9), 25,000 fps, 5 372 Kbps
Аудио: 128 Kbps, 48 KHz, MPEG, mp2 2.0 channels
Запись видео: Openbox SX6 HD
Программа корректировки видео: Cypheros TS-Doctor ver. 1.2.22

Код:

General
ID                             : 1 (0x1)
Complete name                  : E:\Nogomet PREGLED MAXTV PRVE LIGE 21 kolo 2016.ts
Format                         : MPEG-TS
File size                      : 1.29 GiB
Duration                       : 31mn 59s
Overall bit rate mode          : Variable
Overall bit rate               : 5 788 Kbps

Video
ID                             : 2856 (0xB28)
Menu ID                        : 108 (0x6C)
Format                         : AVC
Format/Info                    : Advanced Video Codec
Format profile                 : High@L4
Format settings, CABAC         : Yes
Format settings, ReFrames      : 4 frames
Codec ID                       : 27
Duration                       : 31mn 58s
Bit rate                       : 5 372 Kbps
Width                          : 1 920 pixels
Height                         : 1 080 pixels
Display aspect ratio           : 16:9
Frame rate                     : 25.000 fps
Standard                       : Component
Color space                    : YUV
Chroma subsampling             : 4:2:0
Bit depth                      : 8 bits
Scan type                      : Interlaced
Scan order                     : Top Field First
Bits/(Pixel*Frame)             : 0.104
Stream size                    : 1.20 GiB (93%)
Color range                    : Limited
Color primaries                : BT.709
Transfer characteristics       : BT.709
Matrix coefficients            : BT.709

Audio
ID                             : 2600 (0xA28)
Menu ID                        : 108 (0x6C)
Format                         : MPEG Audio
Format version                 : Version 1
Format profile                 : Layer 2
Codec ID                       : 4
Duration                       : 31mn 59s
Bit rate mode                  : Constant
Bit rate                       : 128 Kbps
Channel(s)                     : 2 channels
Sampling rate                  : 48.0 KHz
Compression mode               : Lossy
Delay relative to video        : -1s 466ms
Stream size                    : 29.3 MiB (2%)
Скриншоты

Код:

00:22:58.800 ; 00:00:02.736 ; 7
00:23:01.824 ; 00:00:00.432 ; 3
00:23:02.688 ; 00:00:00.864 ; 7
00:23:03.984 ; 00:00:00.144 ; 2
00:23:04.272 ; 00:00:00.144 ; 2
00:23:04.848 ; 00:00:00.144 ; 2
00:23:05.568 ; 00:00:00.144 ; 2
00:23:06.000 ; 00:00:00.288 ; 2

_________________
webmoney: R102437980674, U865336828210, Bitcoin: 1C5RGE4438bq3VfVUEfcw63rmYrb6Sgr29. Файлы не конвертирую. Готов реанимировать почти все свои раздачи.
Profile PM
Ответить на тему