Чемпионат Турции 2015-16 / 19-й тур / Her Şeye Değer. Futbol HD / Обзор матчей тура / TRT HD [25.01.2016, 1080i, H.264, TUR, AC-3 5.1, HDTV, SAT]

Ответить на тему

Автор Сообщение

K. Valera


Стаж: 4 года 7 месяцев

Сообщений: 781

Украина

Торрент-статистика

post 25-Янв-2016 23:50

Quote


Чемпионат Турции 2015-16 / 19-й тур / Her Şeye Değer. Futbol HD / Обзор матчей тура / TRT HD

Год выпуска: 25.01.2016
Вид спорта: Футбол
Релиз:
Aвтор рипа: K. Valera
Продолжительность: 00:51:48
Канал:
Комментарий: Профессиональный
Язык комментариев: Турецкий
Качество: HDTV / Формат: *.ts / Видео Кодек: AVC / Аудио Кодек: MPEG, AC-3
Видео: 1920x1080 (16/9), 25,000 fps, 11.8 Mbps
Аудио 1: 384 Kbps, 48 KHz, Dolby AC-3 5.1 channels Турецкий
Аудио 2: 192 Kbps, 48 KHz, MPEG mp2 2.0 channels, Турецкий
Запись видео: Openbox SX6 HD
Программа корректировки видео: Cypheros TS-Doctor ver. 1.2.22

Код:

General
ID                             : 31001 (0x7919)
Complete name                  : D:\111\Futbol HD 19 round 25.01.2016.ts
Format                         : MPEG-TS
File size                      : 4.71 GiB
Duration                       : 51mn 48s
Overall bit rate mode          : Variable
Overall bit rate               : 13.0 Mbps

Video
ID                             : 1600 (0x640)
Menu ID                        : 10600 (0x2968)
Format                         : AVC
Format/Info                    : Advanced Video Codec
Format profile                 : High@L4
Format settings, CABAC         : Yes
Format settings, ReFrames      : 4 frames
Codec ID                       : 27
Duration                       : 51mn 47s
Bit rate                       : 11.8 Mbps
Width                          : 1 920 pixels
Height                         : 1 080 pixels
Display aspect ratio           : 16:9
Frame rate                     : 25.000 fps
Color space                    : YUV
Chroma subsampling             : 4:2:0
Bit depth                      : 8 bits
Scan type                      : MBAFF
Scan order                     : Top Field First
Bits/(Pixel*Frame)             : 0.228
Stream size                    : 4.27 GiB (91%)

Audio #1
ID                             : 1700 (0x6A4)
Menu ID                        : 10600 (0x2968)
Format                         : AC-3
Format/Info                    : Audio Coding 3
Mode extension                 : CM (complete main)
Format settings, Endianness    : Big
Codec ID                       : 6
Duration                       : 51mn 48s
Bit rate mode                  : Constant
Bit rate                       : 384 Kbps
Channel(s)                     : 6 channels
Channel positions              : Front: L C R, Side: L R, LFE
Sampling rate                  : 48.0 KHz
Compression mode               : Lossy
Delay relative to video        : -1s 14ms
Stream size                    : 142 MiB (3%)
Language                       : Turkish

Audio #2
ID                             : 1800 (0x708)
Menu ID                        : 10600 (0x2968)
Format                         : MPEG Audio
Format version                 : Version 1
Format profile                 : Layer 2
Codec ID                       : 3
Duration                       : 51mn 48s
Bit rate mode                  : Constant
Bit rate                       : 192 Kbps
Channel(s)                     : 2 channels
Sampling rate                  : 48.0 KHz
Compression mode               : Lossy
Delay relative to video        : -968ms
Stream size                    : 71.1 MiB (1%)
Language                       : English
Скриншоты

Код:

00:05:31.829 ; 00:00:00.046 ; 2
00:08:07.093 ; 00:00:00.686 ; 3
00:21:43.202 ; 00:00:00.018 ; 2
00:21:43.682 ; 00:00:00.096 ; 3
00:21:44.117 ; 00:00:00.142 ; 3
00:21:45.013 ; 00:00:00.128 ; 2
00:21:45.397 ; 00:00:01.349 ; 7
00:21:46.421 ; 00:00:01.114 ; 3
00:21:46.549 ; 00:00:01.365 ; 4
00:28:28.085 ; 00:00:00.526 ; 3

_________________
webmoney: R102437980674, U865336828210, Bitcoin: 1C5RGE4438bq3VfVUEfcw63rmYrb6Sgr29. Файлы не конвертирую. Готов реанимировать почти все свои раздачи.
Profile PM
Ответить на тему