Чемпионат Турции 2015-16 / 21-й тур / Süper Lig 21 Hafta Goller / Обзор матчей тура / TRT SPOR HD [16.02.2016, 1080i, H.264, TUR, HDTV, SAT]

Ответить на тему

Автор Сообщение

K. Valera


Стаж: 4 года 7 месяцев

Сообщений: 780

Украина

Торрент-статистика

post 17-Фев-2016 12:44

Quote


Чемпионат Турции 2015-16 / 21-й тур / Süper Lig 21 Hafta Goller / Обзор матчей тура / TRT SPOR HD

Год выпуска: 16.02.2016
Вид : Футбол
Релиз:
Aвтор рипа: K. Valera
Продолжительность: 00:14:32
Канал:
Комментарий: Профессиональный
Язык комментариев: Турецкий
Качество: HDTV / Формат: *.ts / Видео Кодек: AVC / Аудио Кодек: MPEG
Видео: 1920x1080 (16/9), 25,000 fps, 10.1 Mbps
Аудио: 192 Kbps, 48 KHz, MPEG, mp2 2.0 channels
Запись видео: Openbox SX6 HD
Программа корректировки видео: Cypheros TS-Doctor ver. 1.2.22

Код:

General
ID                             : 31001 (0x7919)
Complete name                  : E:\Super Lig 21 Hafta Goller.ts
Format                         : MPEG-TS
File size                      : 1.10 GiB
Duration                       : 14mn 32s
Overall bit rate mode          : Variable
Overall bit rate               : 10.8 Mbps

Video
ID                             : 1603 (0x643)
Menu ID                        : 10603 (0x296B)
Format                         : AVC
Format/Info                    : Advanced Video Codec
Format profile                 : High@L4
Format settings, CABAC         : Yes
Format settings, ReFrames      : 4 frames
Codec ID                       : 27
Duration                       : 14mn 31s
Bit rate                       : 10.1 Mbps
Width                          : 1 920 pixels
Height                         : 1 080 pixels
Display aspect ratio           : 16:9
Frame rate                     : 25.000 fps
Color space                    : YUV
Chroma subsampling             : 4:2:0
Bit depth                      : 8 bits
Scan type                      : MBAFF
Scan order                     : Top Field First
Bits/(Pixel*Frame)             : 0.195
Stream size                    : 1.02 GiB (93%)

Audio
ID                             : 1703 (0x6A7)
Menu ID                        : 10603 (0x296B)
Format                         : MPEG Audio
Format version                 : Version 1
Format profile                 : Layer 2
Codec ID                       : 3
Duration                       : 14mn 32s
Bit rate mode                  : Constant
Bit rate                       : 192 Kbps
Channel(s)                     : 2 channels
Sampling rate                  : 48.0 KHz
Compression mode               : Lossy
Delay relative to video        : 49ms
Stream size                    : 20.0 MiB (2%)
Language                       : Turkish
Скриншоты


_________________
webmoney: R102437980674, U865336828210, Bitcoin: 1C5RGE4438bq3VfVUEfcw63rmYrb6Sgr29. Файлы не конвертирую. Готов реанимировать почти все свои раздачи.


Последний раз редактировалось: K. Valera (2016-02-22 20:40), всего редактировалось 1 раз
Profile PM

Lamin80


Стаж: 3 года 9 месяцев

Сообщений: 240

Откуда: Горловка Донецкая Народная Республика

Россия

Торрент-статистика

post 18-Фев-2016 11:54 (спустя 23 часа)

Quote


классный обзор...коротко, все голы, повторы
Profile PM
Ответить на тему