Чемпионат Турции. 1-я лига 2015-16 / 21-й тур / PTT 1. Lig Analiz 21 Hafta / TRT SPOR HD [16.02.2016, 1080i, H.264, TUR, HDTV, SAT]

Ответить на тему

Автор Сообщение

K. Valera


Стаж: 4 года 7 месяцев

Сообщений: 781

Украина

Торрент-статистика

post 17-Фев-2016 13:02

Quote


Чемпионат Турции. 1-я лига 2015-16 / 21-й тур / PTT 1. Lig Analiz 21 Hafta / TRT SPOR HD

Год выпуска: 16.02.2016
Вид : Футбол
Релиз:
Aвтор рипа: K. Valera
Продолжительность: 00:56:08
Канал:
Комментарий: Профессиональный
Язык комментариев: Турецкий
Качество: HDTV / Формат: *.ts / Видео Кодек: AVC / Аудио Кодек: MPEG
Видео: 1920x1080 (16/9), 25,000 fps, 7 784 Kbps
Аудио: 192 Kbps, 48 KHz, MPEG, mp2 2.0 channels
Запись видео: Openbox SX6 HD
Программа корректировки видео: Cypheros TS-Doctor ver. 1.2.22

Код:

General
ID                             : 31001 (0x7919)
Complete name                  : E:\PTT 1. Lig Analiz 21 Hafta TRT SPOR HD.ts
Format                         : MPEG-TS
File size                      : 3.29 GiB
Duration                       : 56mn 7s
Overall bit rate mode          : Variable
Overall bit rate               : 8 392 Kbps

Video
ID                             : 1603 (0x643)
Menu ID                        : 10603 (0x296B)
Format                         : AVC
Format/Info                    : Advanced Video Codec
Format profile                 : High@L4
Format settings, CABAC         : Yes
Format settings, ReFrames      : 4 frames
Codec ID                       : 27
Duration                       : 56mn 7s
Bit rate                       : 7 784 Kbps
Width                          : 1 920 pixels
Height                         : 1 080 pixels
Display aspect ratio           : 16:9
Frame rate                     : 25.000 fps
Color space                    : YUV
Chroma subsampling             : 4:2:0
Bit depth                      : 8 bits
Scan type                      : MBAFF
Scan order                     : Top Field First
Bits/(Pixel*Frame)             : 0.150
Stream size                    : 3.05 GiB (93%)

Audio
ID                             : 1703 (0x6A7)
Menu ID                        : 10603 (0x296B)
Format                         : MPEG Audio
Format version                 : Version 1
Format profile                 : Layer 2
Codec ID                       : 3
Duration                       : 56mn 8s
Bit rate mode                  : Constant
Bit rate                       : 192 Kbps
Channel(s)                     : 2 channels
Sampling rate                  : 48.0 KHz
Compression mode               : Lossy
Delay relative to video        : 49ms
Stream size                    : 77.1 MiB (2%)
Language                       : Turkish
Скриншоты


_________________
webmoney: R102437980674, U865336828210, Bitcoin: 1C5RGE4438bq3VfVUEfcw63rmYrb6Sgr29. Файлы не конвертирую. Готов реанимировать почти все свои раздачи.
Profile PM
Ответить на тему