Чемпионат Норвегии 2016 / Tippeligaen / Fotballkveld 1 runde / Обзор 1-го тура / TV 2 Sportskanalen HD [14.03.2016, 720p, 50 fps, H.264, MPEG, NOR, HDTV, SAT]

Ответить на тему

Автор Сообщение

K. Valera


Стаж: 4 года 7 месяцев

Сообщений: 781

Украина

Торрент-статистика

post 15-Мар-2016 12:13

Quote


Чемпионат Норвегии 2016 / Tippeligaen / Fotballkveld 1 runde / Обзор 1-го тура / TV 2 Sportskanalen HD

Год выпуска: 14.03.2016
Вид спорта: Футбол
Релиз:
Aвтор рипа: K. Valera
Продолжительность: 00:47:48
Канал:
Комментарий: Профессиональный
Язык комментариев: Норвежский
Качество: HDTV / Формат: *.ts / Видео Кодек: AVC / Аудио Кодек: MPEG
Видео: 1280x720 (16/9), 50,000 fps, 7 455 Kbps
Аудио: 256 Kbps, 48 KHz, MPEG, mp2 2.0 channels
Запись видео:
Программа корректировки видео: Cypheros TS-Doctor ver. 1.2.22

Код:

General
ID                             : 68 (0x44)
Complete name                  : F:\Fotballkveld - 1 runde 2016 TV 2 Sportskanalen HD.ts
Format                         : MPEG-TS
File size                      : 2.71 GiB
Duration                       : 47mn 47s
Overall bit rate mode          : Variable
Overall bit rate               : 8 114 Kbps

Video
ID                             : 1277 (0x4FD)
Menu ID                        : 7078 (0x1BA6)
Format                         : AVC
Format/Info                    : Advanced Video Codec
Format profile                 : High@L4
Format settings, CABAC         : Yes
Format settings, ReFrames      : 4 frames
Codec ID                       : 27
Duration                       : 47mn 48s
Bit rate                       : 7 455 Kbps
Width                          : 1 280 pixels
Height                         : 720 pixels
Display aspect ratio           : 16:9
Frame rate                     : 50.000 fps
Color space                    : YUV
Chroma subsampling             : 4:2:0
Bit depth                      : 8 bits
Scan type                      : Progressive
Bits/(Pixel*Frame)             : 0.162
Stream size                    : 2.49 GiB (92%)

Audio
ID                             : 3381 (0xD35)
Menu ID                        : 7078 (0x1BA6)
Format                         : MPEG Audio
Format version                 : Version 1
Format profile                 : Layer 2
Mode                           : Joint stereo
Mode extension                 : Intensity Stereo + MS Stereo
Codec ID                       : 3
Duration                       : 47mn 46s
Bit rate mode                  : Constant
Bit rate                       : 256 Kbps
Channel(s)                     : 2 channels
Sampling rate                  : 48.0 KHz
Compression mode               : Lossy
Delay relative to video        : 44ms
Stream size                    : 87.5 MiB (3%)
Language                       : Norwegian
Скриншоты:


_________________
webmoney: R102437980674, U865336828210, Bitcoin: 1C5RGE4438bq3VfVUEfcw63rmYrb6Sgr29. Файлы не конвертирую. Готов реанимировать почти все свои раздачи.


Последний раз редактировалось: K. Valera (2016-03-21 12:25), всего редактировалось 2 раз(а)
Profile PM

cardiolog-artie


Стаж: 5 лет 2 месяца

Сообщений: 1

Торрент-статистика

post 15-Мар-2016 20:42 (спустя 8 часов)

Quote


Чемпионат Норвегии 2016-17 / Tippeligaen / Fotballkveld 1 runde / Обзор 1-го тура / TV 2 Sportskanalen HD [14.03.2016, 720p, 50 fps, H.264, MPEG, NOR, HDTV, SAT][/quote]

Спасибо вам большое!!!
Profile PM

thotspurs1


Стаж: 5 лет 11 месяцев

Сообщений: 63

Откуда: Херсон

Украина

Торрент-статистика

post 26-Мар-2016 02:33 (спустя 10 дней)

Quote


Обзора матча Одд - Русенборг не показали.
Profile PM
Ответить на тему