Чемпионат Турции. 1-я лига 2015-16 / 25-й тур / PTT 1. Lig 25 Hafta Goller / TRT SPOR HD [15.03.2016, 1080i, H.264, TUR, HDTV, SAT]

Ответить на тему

Автор Сообщение

K. Valera


Стаж: 4 года 7 месяцев

Сообщений: 781

Украина

Торрент-статистика

post 16-Мар-2016 15:10

Quote


Чемпионат Турции. 1-я лига 2015-16 / 25-й тур / PTT 1. Lig 25 Hafta Goller / TRT SPOR HD

Год выпуска: 15.03.2016
Вид : Футбол
Релиз:
Aвтор рипа: K. Valera
Продолжительность: 00:09:11
Канал:
Комментарий: Профессиональный
Язык комментариев: Турецкий
Качество: HDTV / Формат: *.ts / Видео Кодек: AVC / Аудио Кодек: MPEG
Видео: 1920x1080 (16/9), 25,000 fps, 10.0 Mbps
Аудио: 192 Kbps, 48 KHz, MPEG, mp2 2.0 channels
Запись видео: Openbox SX6 HD
Программа корректировки видео: Cypheros TS-Doctor ver. 1.2.22

Код:

General
ID                             : 31001 (0x7919)
Complete name                  : E:\PTT 1. Lig 25  Hafta Goller TRT SPOR HD.ts
Format                         : MPEG-TS
File size                      : 705 MiB
Duration                       : 9mn 11s
Overall bit rate mode          : Variable
Overall bit rate               : 10.7 Mbps

Video
ID                             : 1603 (0x643)
Menu ID                        : 10603 (0x296B)
Format                         : AVC
Format/Info                    : Advanced Video Codec
Format profile                 : High@L4
Format settings, CABAC         : Yes
Format settings, ReFrames      : 4 frames
Codec ID                       : 27
Duration                       : 9mn 10s
Bit rate                       : 10.0 Mbps
Width                          : 1 920 pixels
Height                         : 1 080 pixels
Display aspect ratio           : 16:9
Frame rate                     : 25.000 fps
Color space                    : YUV
Chroma subsampling             : 4:2:0
Bit depth                      : 8 bits
Scan type                      : MBAFF
Scan order                     : Top Field First
Bits/(Pixel*Frame)             : 0.193
Stream size                    : 656 MiB (93%)

Audio
ID                             : 1703 (0x6A7)
Menu ID                        : 10603 (0x296B)
Format                         : MPEG Audio
Format version                 : Version 1
Format profile                 : Layer 2
Codec ID                       : 3
Duration                       : 9mn 11s
Bit rate mode                  : Constant
Bit rate                       : 192 Kbps
Channel(s)                     : 2 channels
Sampling rate                  : 48.0 KHz
Compression mode               : Lossy
Delay relative to video        : 64ms
Stream size                    : 12.6 MiB (2%)
Language                       : Turkish
Скриншоты

_________________
webmoney: R102437980674, U865336828210, Bitcoin: 1C5RGE4438bq3VfVUEfcw63rmYrb6Sgr29. Файлы не конвертирую. Готов реанимировать почти все свои раздачи.


Последний раз редактировалось: K. Valera (2016-03-21 12:26), всего редактировалось 1 раз
Profile PM

Спарт


Стаж: 6 лет

Сообщений: 93

Россия

Торрент-статистика

post 18-Мар-2016 17:33 (спустя 2 дня 2 часа)

Quote


Простите , а не подскажите сколько матчей вошло в обзор? Хотя бы примерно. Просто я смотрю продолжительность то всего 9 минут
Profile PM

K. Valera


Стаж: 4 года 7 месяцев

Сообщений: 781

Украина

Торрент-статистика

post 18-Мар-2016 18:03 (спустя 29 минут)

Quote


Там короткий обзор голов, сколько матчей - сам не знаю.

_________________
webmoney: R102437980674, U865336828210, Bitcoin: 1C5RGE4438bq3VfVUEfcw63rmYrb6Sgr29. Файлы не конвертирую. Готов реанимировать почти все свои раздачи.
Profile PM

K. Valera


Стаж: 4 года 7 месяцев

Сообщений: 781

Украина

Торрент-статистика

post 18-Мар-2016 18:03 (спустя 0 секунд)

Quote


Там короткий обзор голов, сколько матчей - сам не знаю.

_________________
webmoney: R102437980674, U865336828210, Bitcoin: 1C5RGE4438bq3VfVUEfcw63rmYrb6Sgr29. Файлы не конвертирую. Готов реанимировать почти все свои раздачи.
Profile PM
Ответить на тему