Чемпионат Хорватии 2015-16 / 28 тур / MAXtv Prva liga / Arena Sport 3 HD [25.03.2016, 1080i, H.264, CRO, HDTV, SAT]

Ответить на тему

Автор Сообщение

K. Valera


Стаж: 4 года 7 месяцев

Сообщений: 781

Украина

Торрент-статистика

post 27-Мар-2016 11:02

Quote


Чемпионат Хорватии 2015-16 / 28 тур / MAXtv Prva liga / Arena Sport 3 HD

Год выпуска:25.03.2016
Вид спорта: Футбол
Релиз:
Aвтор рипа: K. Valera
Продолжительность: 00:34:00
Канал:
Комментарий: Профессиональный
Язык комментариев: Хорватский
Качество: HDTV / Формат: *.ts / Видео Кодек: AVC / Аудио Кодек: MPEG
Видео: 1920x1080 (16/9), 25,000 fps, 5 783 Kbps
Аудио: 128 Kbps, 48 KHz, MPEG, mp2 2.0 channels
Запись видео: Openbox SX6 HD
Программа корректировки видео: Cypheros TS-Doctor ver. 1.2.22

Код:

General
ID                             : 1 (0x1)
Complete name                  : F:\Nogomet PREGLED MAXTV PRVE LIGE 28 kolo 2016.ts
Format                         : MPEG-TS
File size                      : 1.48 GiB
Duration                       : 33mn 59s
Overall bit rate mode          : Variable
Overall bit rate               : 6 219 Kbps

Video
ID                             : 2856 (0xB28)
Menu ID                        : 108 (0x6C)
Format                         : AVC
Format/Info                    : Advanced Video Codec
Format profile                 : High@L4
Format settings, CABAC         : Yes
Format settings, ReFrames      : 4 frames
Codec ID                       : 27
Duration                       : 33mn 59s
Bit rate                       : 5 783 Kbps
Width                          : 1 920 pixels
Height                         : 1 080 pixels
Display aspect ratio           : 16:9
Frame rate                     : 25.000 fps
Standard                       : Component
Color space                    : YUV
Chroma subsampling             : 4:2:0
Bit depth                      : 8 bits
Scan type                      : Interlaced
Scan order                     : Top Field First
Bits/(Pixel*Frame)             : 0.112
Stream size                    : 1.37 GiB (93%)
Color range                    : Limited
Color primaries                : BT.709
Transfer characteristics       : BT.709
Matrix coefficients            : BT.709

Audio
ID                             : 2600 (0xA28)
Menu ID                        : 108 (0x6C)
Format                         : MPEG Audio
Format version                 : Version 1
Format profile                 : Layer 2
Codec ID                       : 4
Duration                       : 33mn 59s
Bit rate mode                  : Constant
Bit rate                       : 128 Kbps
Channel(s)                     : 2 channels
Sampling rate                  : 48.0 KHz
Compression mode               : Lossy
Delay relative to video        : -1s 71ms
Stream size                    : 31.1 MiB (2%)
Скриншоты

_________________
webmoney: R102437980674, U865336828210, Bitcoin: 1C5RGE4438bq3VfVUEfcw63rmYrb6Sgr29. Файлы не конвертирую. Готов реанимировать почти все свои раздачи.
Profile PM
Ответить на тему