Чемпионат Норвегии 2016 / Tippeligaen + OBOS-ligaen / Fotballkveld 3 runde / Обзор 3-го тура / TV2 Zebra HD [03.04.2016, 720p, 50 fps, H.264, NOR, HDTV]

Ответить на тему

Автор Сообщение

K. Valera


Стаж: 4 года 7 месяцев

Сообщений: 781

Украина

Торрент-статистика

post 04-Апр-2016 09:55

Quote


Чемпионат Норвегии 2016 / Tippeligaen + OBOS-ligaen / Fotballkveld 3 runde / Обзор 3-го тура / TV2 Zebra HD

Год выпуска: 03.04.2016
Вид спорта: Футбол
Релиз:
Aвтор рипа: K. Valera
Продолжительность: 00:50:05
Канал:
Комментарий: Профессиональный
Язык комментариев: Норвежский
Качество: HDTV / Формат: *.ts / Видео Кодек: AVC / Аудио Кодек: MPEG
Видео: 1280x720 (16/9), 50,000 fps, 6 743 Kbps
Аудио: 256 Kbps, 48 KHz, MPEG, mp2 2.0 channels
Запись видео:
Программа корректировки видео: Cypheros TS-Doctor ver. 1.2.22

!!! Обзор 3-го раунда Tippeligaen и в концовке обзор голов 1-го раунда OBOS-ligaen

Код:

General
ID                             : 68 (0x44)
Complete name                  : F:\Fotballkveld - 3 runde 2016 TV 2 Zebra HD.ts
Format                         : MPEG-TS
File size                      : 2.63 GiB
Duration                       : 51mn 5s
Overall bit rate mode          : Variable
Overall bit rate               : 7 365 Kbps

Video
ID                             : 1291 (0x50B)
Menu ID                        : 7065 (0x1B99)
Format                         : AVC
Format/Info                    : Advanced Video Codec
Format profile                 : High@L4
Format settings, CABAC         : Yes
Format settings, ReFrames      : 4 frames
Codec ID                       : 27
Duration                       : 51mn 3s
Bit rate                       : 6 743 Kbps
Width                          : 1 280 pixels
Height                         : 720 pixels
Display aspect ratio           : 16:9
Frame rate                     : 50.000 fps
Color space                    : YUV
Chroma subsampling             : 4:2:0
Bit depth                      : 8 bits
Scan type                      : Progressive
Bits/(Pixel*Frame)             : 0.146
Stream size                    : 2.40 GiB (91%)

Audio
ID                             : 3378 (0xD32)
Menu ID                        : 7065 (0x1B99)
Format                         : MPEG Audio
Format version                 : Version 1
Format profile                 : Layer 2
Mode                           : Joint stereo
Mode extension                 : Intensity Stereo + MS Stereo
Codec ID                       : 3
Duration                       : 51mn 4s
Bit rate mode                  : Constant
Bit rate                       : 256 Kbps
Channel(s)                     : 2 channels
Sampling rate                  : 48.0 KHz
Compression mode               : Lossy
Delay relative to video        : 182ms
Stream size                    : 93.5 MiB (3%)
Language                       : Norwegian
Скриншоты:

_________________
webmoney: R102437980674, U865336828210, Bitcoin: 1C5RGE4438bq3VfVUEfcw63rmYrb6Sgr29. Файлы не конвертирую. Готов реанимировать почти все свои раздачи.
Profile PM
Ответить на тему