Чемпионат Турции 2015-16 / 27-й тур / Süper Lig 27 Hafta Goller / Обзор голов тура / TRT SPOR HD [05.04.2016, 1080i, H.264, TUR, HDTV, SAT]

Ответить на тему

Автор Сообщение

K. Valera


Стаж: 4 года 7 месяцев

Сообщений: 781

Украина

Торрент-статистика

post 05-Апр-2016 20:16

Quote


Чемпионат Турции 2015-16 / 27-й тур / Süper Lig 27 Hafta Goller / Обзор голов тура / TRT SPOR HD

Год выпуска: 05.04.2016
Вид : Футбол
Релиз:
Aвтор рипа: K. Valera
Продолжительность: 00:11:56
Канал:
Комментарий: Профессиональный
Язык комментариев: Турецкий
Качество: HDTV / Формат: *.ts / Видео Кодек: AVC / Аудио Кодек: MPEG
Видео: 1920x1080 (16/9), 25,000 fps, 11.2 Mbps
Аудио: 192 Kbps, 48 KHz, MPEG, mp2 2.0 channels
Запись видео: Openbox SX6 HD
Программа корректировки видео: Cypheros TS-Doctor ver. 1.2.22

Код:

General
ID                             : 31001 (0x7919)
Complete name                  : D:\111\Super Lig 27 Hafta Goller.ts
Format                         : MPEG-TS
File size                      : 1.00 GiB
Duration                       : 11mn 55s
Overall bit rate mode          : Variable
Overall bit rate               : 12.0 Mbps

Video
ID                             : 1603 (0x643)
Menu ID                        : 10603 (0x296B)
Format                         : AVC
Format/Info                    : Advanced Video Codec
Format profile                 : High@L4
Format settings, CABAC         : Yes
Format settings, ReFrames      : 4 frames
Codec ID                       : 27
Duration                       : 11mn 54s
Bit rate                       : 11.2 Mbps
Width                          : 1 920 pixels
Height                         : 1 080 pixels
Display aspect ratio           : 16:9
Frame rate                     : 25.000 fps
Color space                    : YUV
Chroma subsampling             : 4:2:0
Bit depth                      : 8 bits
Scan type                      : MBAFF
Scan order                     : Top Field First
Bits/(Pixel*Frame)             : 0.217
Stream size                    : 956 MiB (93%)

Audio
ID                             : 1703 (0x6A7)
Menu ID                        : 10603 (0x296B)
Format                         : MPEG Audio
Format version                 : Version 1
Format profile                 : Layer 2
Codec ID                       : 3
Duration                       : 11mn 55s
Bit rate mode                  : Constant
Bit rate                       : 192 Kbps
Channel(s)                     : 2 channels
Sampling rate                  : 48.0 KHz
Compression mode               : Lossy
Delay relative to video        : -1s 158ms
Stream size                    : 16.4 MiB (2%)
Language                       : Turkish
Скриншоты

_________________
webmoney: R102437980674, U865336828210, Bitcoin: 1C5RGE4438bq3VfVUEfcw63rmYrb6Sgr29. Файлы не конвертирую. Готов реанимировать почти все свои раздачи.


Последний раз редактировалось: K. Valera (2016-04-11 16:30), всего редактировалось 1 раз
Profile PM

pali158888


Стаж: 1 год 5 месяцев

Сообщений: 7

Откуда: toledo

Испания

Торрент-статистика

post 06-Апр-2016 20:19 (спустя 1 день)

Quote


Hello, you could share best moves?
Profile PM
Ответить на тему