Чемпионат Норвегии 2016 / Tippeligaen + OBOS-ligaen / Fotballkveld 8 runde / Обзор 8-го и 5-го туров / TV2 Zebra HD [01.05.2016, 720p, 50 fps, H.264, NOR, HDTV]

Ответить на тему

Автор Сообщение

K. Valera


Стаж: 4 года 7 месяцев

Сообщений: 781

Украина

Торрент-статистика

post 02-Май-2016 15:05

Quote


Чемпионат Норвегии 2016 / Tippeligaen + OBOS-ligaen / Fotballkveld 8 runde / Обзор 8-го и 5-го туров / TV2 Zebra HD

Год выпуска: 01.05.2016
Вид спорта: Футбол
Релиз:
Aвтор рипа: K. Valera
Продолжительность: 00:48:20
Канал:
Комментарий: Профессиональный
Язык комментариев: Норвежский
Качество: HDTV / Формат: *.ts / Видео Кодек: AVC / Аудио Кодек: MPEG
Видео: 1280x720 (16/9), 50,000 fps, 6 319 Kbps
Аудио: 256 Kbps, 48 KHz, MPEG, mp2 2.0 channels
Запись видео: Openbox SX6 HD
Программа корректировки видео: Cypheros TS-Doctor ver. 1.2.22

!!! Обзор 8-го раунда Tippeligaen и в концовке обзор голов 5-го раунда OBOS-ligaen

Код:

General
ID                             : 68 (0x44)
Complete name                  : F:\Fotballkveld - 8 runde 2016 TV 2 Zebra HD.ts
Format                         : MPEG-TS
File size                      : 2.34 GiB
Duration                       : 48mn 19s
Overall bit rate mode          : Variable
Overall bit rate               : 6 920 Kbps

Video
ID                             : 1291 (0x50B)
Menu ID                        : 7065 (0x1B99)
Format                         : AVC
Format/Info                    : Advanced Video Codec
Format profile                 : High@L4
Format settings, CABAC         : Yes
Format settings, ReFrames      : 4 frames
Codec ID                       : 27
Duration                       : 48mn 19s
Bit rate                       : 6 319 Kbps
Width                          : 1 280 pixels
Height                         : 720 pixels
Display aspect ratio           : 16:9
Frame rate                     : 50.000 fps
Color space                    : YUV
Chroma subsampling             : 4:2:0
Bit depth                      : 8 bits
Scan type                      : Progressive
Bits/(Pixel*Frame)             : 0.137
Stream size                    : 2.13 GiB (91%)

Audio
ID                             : 3378 (0xD32)
Menu ID                        : 7065 (0x1B99)
Format                         : MPEG Audio
Format version                 : Version 1
Format profile                 : Layer 2
Mode                           : Joint stereo
Mode extension                 : Intensity Stereo + MS Stereo
Codec ID                       : 3
Duration                       : 48mn 20s
Bit rate mode                  : Constant
Bit rate                       : 256 Kbps
Channel(s)                     : 2 channels
Sampling rate                  : 48.0 KHz
Compression mode               : Lossy
Delay relative to video        : 51ms
Stream size                    : 88.5 MiB (4%)
Language                       : Norwegian
Скриншоты:


_________________
webmoney: R102437980674, U865336828210, Bitcoin: 1C5RGE4438bq3VfVUEfcw63rmYrb6Sgr29. Файлы не конвертирую. Готов реанимировать почти все свои раздачи.
Profile PM

batya


Стаж: 5 лет 3 месяца

Сообщений: 2

Украина

Торрент-статистика

post 03-Май-2016 13:02 (спустя 21 час)

Quote


Просьба к вам!Не могли бы вы выкладывать матчи и обзоры в другом формате??Пожалуйста!
Profile PM

K. Valera


Стаж: 4 года 7 месяцев

Сообщений: 781

Украина

Торрент-статистика

post 05-Май-2016 15:00 (спустя 2 дня 1 час)

Quote


batya писал(а):

Просьба к вам!Не могли бы вы выкладывать матчи и обзоры в другом формате??Пожалуйста!
Неоднократно отвечал на этот вопрос. Нет технической возможности, комп слабый. Конвертацию добить пол дня будет. А чё там качать 2Гб при современном интернете. У меня с флешки копируется дольше, чем с интернета качается. Тем более, зачем качество убивать? Вы что футбол на Nokia 6300 смотрите? Без обид, но просто не понимаю.
Profile PM
Ответить на тему