Чемпионат Аргентины 2016 / 13-й тур / Обзор матчей /Highlights Liga Argentina. Torneo 1ª división 2016 Jornada 13 / Canal+ Fútbol HD [05.05.2016, 1080i, H.264, ES, HDTV, SAT]

Ответить на тему

Автор Сообщение

K. Valera


Стаж: 4 года 7 месяцев

Сообщений: 781

Украина

Торрент-статистика

post 06-Май-2016 09:50

Quote


Чемпионат Аргентины 2016 / 13-й тур / Обзор матчей / Resúmenes Fútbol Argentino / Canal+ Fútbol HD

Год выпуска: 05.05.2016
Вид спорта: Футбол
Релиз:
Aвтор рипа: K. Valera
Продолжительность: 00:50:16
Канал:
Комментарий: Профессиональный
Язык комментариев: Испанский
Качество: HDTV / Формат: *.ts / Видео Кодек: AVC / Аудио Кодек: AC-3
Видео: 1980x1080 (16/9), 25,000 fps, 8 175 Kbps
Аудио 1: 192 Kbps, 48 KHz, Dolby AC-3 2.0 channels Испанский
Аудио 2: 192 Kbps, 48 KHz, Dolby AC-3 2.0 channels Испанский
Запись видео: Openbox SX6 HD
Программа корректировки видео: Cypheros TS-Doctor ver. 1.2.22

Las mejores jugadas de la última jornada del Torneo 1ª división 2016. Goles, asistencias, paradas, polémica... En este espacio se analiza en profundidad todo lo ocurrido durante el último fin de semana.

Код:

General
ID                             : 1056 (0x420)
Complete name                  : D:\111\Highlights Liga Argentina. Torneo 1ª division 2016 Jornada 13.ts
Format                         : MPEG-TS
File size                      : 3.16 GiB
Duration                       : 50mn 15s
Overall bit rate mode          : Variable
Overall bit rate               : 9 008 Kbps

Video
ID                             : 161 (0xA1)
Menu ID                        : 29951 (0x74FF)
Format                         : AVC
Format/Info                    : Advanced Video Codec
Format profile                 : High@L4
Format settings, CABAC         : Yes
Format settings, ReFrames      : 4 frames
Format settings, GOP           : M=8, N=24
Codec ID                       : 27
Duration                       : 50mn 15s
Bit rate                       : 8 175 Kbps
Width                          : 1 920 pixels
Height                         : 1 080 pixels
Display aspect ratio           : 16:9
Frame rate                     : 25.000 fps
Color space                    : YUV
Chroma subsampling             : 4:2:0
Bit depth                      : 8 bits
Scan type                      : MBAFF
Scan order                     : Top Field First
Bits/(Pixel*Frame)             : 0.158
Stream size                    : 2.87 GiB (91%)
Encryption                     : Nagravision
Color range                    : Limited
Color primaries                : BT.709
Transfer characteristics       : BT.709
Matrix coefficients            : BT.709

Audio #1
ID                             : 86 (0x56)
Menu ID                        : 29951 (0x74FF)
Format                         : AC-3
Format/Info                    : Audio Coding 3
Mode extension                 : CM (complete main)
Format settings, Endianness    : Big
Codec ID                       : 6
Duration                       : 50mn 14s
Bit rate mode                  : Constant
Bit rate                       : 192 Kbps
Channel(s)                     : 2 channels
Channel positions              : Front: L R
Sampling rate                  : 48.0 KHz
Compression mode               : Lossy
Delay relative to video        : 31ms
Stream size                    : 69.0 MiB (2%)
Language                       : Spanish
Encryption                     : Nagravision

Audio #2
ID                             : 87 (0x57)
Menu ID                        : 29951 (0x74FF)
Format                         : AC-3
Format/Info                    : Audio Coding 3
Mode extension                 : CM (complete main)
Format settings, Endianness    : Big
Codec ID                       : 6
Duration                       : 50mn 14s
Bit rate mode                  : Constant
Bit rate                       : 192 Kbps
Channel(s)                     : 2 channels
Channel positions              : Front: L R
Sampling rate                  : 48.0 KHz
Compression mode               : Lossy
Delay relative to video        : 20ms
Stream size                    : 69.0 MiB (2%)
Language                       : qaa
Language, more info            : Clean effects
Encryption                     : Nagravision
Скриншоты:


_________________
webmoney: R102437980674, U865336828210, Bitcoin: 1C5RGE4438bq3VfVUEfcw63rmYrb6Sgr29. Файлы не конвертирую. Готов реанимировать почти все свои раздачи.
Profile PM
Ответить на тему