Чемпионат Бразилии 2016 / FOOT BRAZIL premsnimka MA / Обзор / Arena Sport 1 HD [28.07.2016, 1080i, HD, H264, CRO, SAT]

Ответить на тему

Автор Сообщение

K. Valera


Стаж: 4 года 7 месяцев

Сообщений: 781

Украина

Торрент-статистика

post 31-Июл-2016 14:51

Quote


Чемпионат Бразилии 2016 / FOOT BRAZIL premsnimka MA / Обзор / Arena Sport 1 HD

Год выпуска: 28.07.2016
Вид спорта: Футбол
Релиз:
Aвтор рипа: K. Valera
Продолжительность: 00:31:01
Канал:
Комментарий: Профессиональный
Язык комментариев: Хорватский
Качество: HDTV / Формат: *.ts / Видео Кодек: AVC / Аудио Кодек: MPEG
Видео: 1920x1080 (16/9), 25,000 fps, 5 804 Kbps
Аудио: 128 Kbps, 48 KHz, MPEG, mp2 2.0 channels
Запись видео: Openbox SX6 HD
Программа корректировки видео: Cypheros TS-Doctor ver. 1.2.22

В середине передачи пару сек выпало.

Код:

General
ID                             : 3 (0x3)
Complete name                  : E:\FOOT BRAZIL premsnimka MA 2016.ts
Format                         : MPEG-TS
File size                      : 1.35 GiB
Duration                       : 31mn 0s
Overall bit rate mode          : Variable
Overall bit rate               : 6 241 Kbps

Video
ID                             : 2843 (0xB1B)
Menu ID                        : 412 (0x19C)
Format                         : AVC
Format/Info                    : Advanced Video Codec
Format profile                 : High@L4
Format settings, CABAC         : Yes
Format settings, ReFrames      : 4 frames
Format settings, GOP           : M=4, N=32
Codec ID                       : 27
Duration                       : 30mn 59s
Bit rate                       : 5 804 Kbps
Width                          : 1 920 pixels
Height                         : 1 080 pixels
Display aspect ratio           : 16:9
Frame rate                     : 25.000 fps
Standard                       : Component
Color space                    : YUV
Chroma subsampling             : 4:2:0
Bit depth                      : 8 bits
Scan type                      : Interlaced
Scan order                     : Top Field First
Bits/(Pixel*Frame)             : 0.112
Stream size                    : 1.26 GiB (93%)
Color range                    : Limited
Color primaries                : BT.709
Transfer characteristics       : BT.709
Matrix coefficients            : BT.709

Audio
ID                             : 2587 (0xA1B)
Menu ID                        : 412 (0x19C)
Format                         : MPEG Audio
Format version                 : Version 1
Format profile                 : Layer 2
Mode                           : Joint stereo
Codec ID                       : 4
Duration                       : 31mn 1s
Bit rate mode                  : Constant
Bit rate                       : 128 Kbps
Channel(s)                     : 2 channels
Sampling rate                  : 48.0 KHz
Compression mode               : Lossy
Delay relative to video        : 84ms
Stream size                    : 28.4 MiB (2%)
Скриншоты:



_________________
webmoney: R102437980674, U865336828210, Bitcoin: 1C5RGE4438bq3VfVUEfcw63rmYrb6Sgr29. Файлы не конвертирую. Готов реанимировать почти все свои раздачи.


Последний раз редактировалось: K. Valera (2016-08-08 02:24), всего редактировалось 1 раз
Profile PM

K. Valera


Стаж: 4 года 7 месяцев

Сообщений: 781

Украина

Торрент-статистика

post 31-Июл-2016 14:53 (спустя 2 минуты)

Quote


Какой это тур и сам не знаю. Там не обзор матчей, а из раздела FOOT BRAZIL SHOW.

_________________
webmoney: R102437980674, U865336828210, Bitcoin: 1C5RGE4438bq3VfVUEfcw63rmYrb6Sgr29. Файлы не конвертирую. Готов реанимировать почти все свои раздачи.
Profile PM
Ответить на тему