Чемпионат Бельгии 2016-17 / Жюпиле Про-лига / 1-й тур / Liga belga Resumen jornada 1 / Обзор тура / beIN Sports HD [01.08.2016, 1080i, H.264, ES, HDTV, SAT]

Ответить на тему

Автор Сообщение

K. Valera


Стаж: 4 года 7 месяцев

Сообщений: 781

Украина

Торрент-статистика

post 02-Авг-2016 10:13

Quote


Чемпионат Бельгии 2016-17 / Жюпиле Про-лига / 1-й тур / Обзор тура / beIN Sports HD

Год выпуска: 01.08.2016
Вид : Футбол
Релиз:
Aвтор рипа: K. Valera
Продолжительность: 00:26:07
Канал:
Комментарий: Профессиональный
Язык комментариев: Испанский
Качество: HDTV / Формат: *.ts / Видео Кодек: AVC / Аудио Кодек: MPEG Audio, AC-3
Видео: 1920x1080 (16/9), 25,000 fps, 8 959 Kbps
Аудио 1: 384 Kbps, 48 KHz, Dolby AC-3 2.0 channels Испанский
Аудио 2: 384 Kbps, 48 KHz, Dolby AC-3 2.0 channels Испанский
Аудио 1: 160 Kbps, 48 KHz, MPEG Audio 2.0 channels Испанский
Аудио 2: 160 Kbps, 48 KHz, MPEG Audio 2.0 channels Испанский
Запись видео:
Программа корректировки видео: Cypheros TS-Doctor ver. 1.2.22

La Jupiler Pro League es la máxima categoría del fútbol en Bélgica. Se disputa anualmente desde 1895, en la actualidad con una liga regular y una eliminatoria. El equipo con más copas es el Anderlecht, con 33 campeonatos en sus vitrinas.

Пока качаешь, слушай - ar Morow.com ! The Prog Radio ! The Best Progressive Rock of Yesterday and Today... ar

Код:

General
ID                             : 1004 (0x3EC)
Complete name                  : D:\111\Liga Belga Resumen jornada 1.ts
Format                         : MPEG-TS
File size                      : 1.93 GiB
Duration                       : 26mn 7s
Overall bit rate mode          : Variable
Overall bit rate               : 10.6 Mbps

Video
ID                             : 160 (0xA0)
Menu ID                        : 30900 (0x78B4)
Format                         : AVC
Format/Info                    : Advanced Video Codec
Format profile                 : High@L4
Format settings, CABAC         : Yes
Format settings, ReFrames      : 4 frames
Codec ID                       : 27
Duration                       : 26mn 6s
Bit rate                       : 8 959 Kbps
Width                          : 1 920 pixels
Height                         : 1 080 pixels
Display aspect ratio           : 16:9
Frame rate                     : 25.000 fps
Color space                    : YUV
Chroma subsampling             : 4:2:0
Bit depth                      : 8 bits
Scan type                      : Interlaced
Scan order                     : Top Field First
Bits/(Pixel*Frame)             : 0.173
Stream size                    : 1.63 GiB (85%)
Encryption                     : Nagravision
Color range                    : Limited
Color primaries                : BT.709
Transfer characteristics       : BT.709
Matrix coefficients            : BT.709

Audio #1
ID                             : 80 (0x50)
Menu ID                        : 30900 (0x78B4)
Format                         : AC-3
Format/Info                    : Audio Coding 3
Mode extension                 : CM (complete main)
Format settings, Endianness    : Big
Codec ID                       : 6
Duration                       : 26mn 7s
Bit rate mode                  : Constant
Bit rate                       : 384 Kbps
Channel(s)                     : 2 channels
Channel positions              : Front: L R
Sampling rate                  : 48.0 KHz
Compression mode               : Lossy
Delay relative to video        : -834ms
Stream size                    : 71.8 MiB (4%)
Language                       : Spanish
Language, more info            : Clean effects
Encryption                     : Nagravision

Audio #2
ID                             : 81 (0x51)
Menu ID                        : 30900 (0x78B4)
Format                         : AC-3
Format/Info                    : Audio Coding 3
Mode extension                 : CM (complete main)
Format settings, Endianness    : Big
Codec ID                       : 6
Duration                       : 26mn 7s
Bit rate mode                  : Constant
Bit rate                       : 384 Kbps
Channel(s)                     : 2 channels
Channel positions              : Front: L R
Sampling rate                  : 48.0 KHz
Compression mode               : Lossy
Delay relative to video        : -833ms
Stream size                    : 71.8 MiB (4%)
Language                       : qaa
Language, more info            : Clean effects
Encryption                     : Nagravision

Audio #3
ID                             : 82 (0x52)
Menu ID                        : 30900 (0x78B4)
Format                         : MPEG Audio
Format version                 : Version 1
Format profile                 : Layer 2
Mode                           : Joint stereo
Codec ID                       : 4
Duration                       : 26mn 7s
Bit rate mode                  : Constant
Bit rate                       : 160 Kbps
Channel(s)                     : 2 channels
Sampling rate                  : 48.0 KHz
Compression mode               : Lossy
Delay relative to video        : -830ms
Stream size                    : 29.9 MiB (2%)
Encryption                     : Nagravision

Audio #4
ID                             : 83 (0x53)
Menu ID                        : 30900 (0x78B4)
Format                         : MPEG Audio
Format version                 : Version 1
Format profile                 : Layer 2
Mode                           : Joint stereo
Codec ID                       : 4
Duration                       : 26mn 7s
Bit rate mode                  : Constant
Bit rate                       : 160 Kbps
Channel(s)                     : 2 channels
Sampling rate                  : 48.0 KHz
Compression mode               : Lossy
Delay relative to video        : -830ms
Stream size                    : 29.9 MiB (2%)
Encryption                     : Nagravision

Код:

-23:50:21.920 ; 00:00:00.000 ; 2
-17:03:46.814 ; 00:00:00.000 ; 2
-23:50:21.920 ; 00:00:00.000 ; 3
-23:50:21.920 ; 00:00:00.000 ; 2
-23:50:21.920 ; 00:00:00.000 ; 2
00:21:27.415 ; 00:00:00.000 ; 2
-23:50:21.920 ; 00:00:00.000 ; 3
-23:50:21.920 ; 00:00:00.000 ; 2
-23:50:21.920 ; 00:00:00.000 ; 2
Скриншоты

_________________
webmoney: R102437980674, U865336828210, Bitcoin: 1C5RGE4438bq3VfVUEfcw63rmYrb6Sgr29. Файлы не конвертирую. Готов реанимировать почти все свои раздачи.


Последний раз редактировалось: K. Valera (2016-08-08 02:24), всего редактировалось 1 раз
Profile PM

K. Valera


Стаж: 4 года 7 месяцев

Сообщений: 781

Украина

Торрент-статистика

post 02-Авг-2016 10:34 (спустя 21 минута)

Quote


Есть пару косяков, но в целом идёт нормально.

_________________
webmoney: R102437980674, U865336828210, Bitcoin: 1C5RGE4438bq3VfVUEfcw63rmYrb6Sgr29. Файлы не конвертирую. Готов реанимировать почти все свои раздачи.
Profile PM
Ответить на тему