Чемпионат Норвегии 2016-17 / Tippeligaen + OBOS-ligaen / Fotballkveld 19 runde / Обзор 19-го тура / TV2 Zebra HD [08.08.2016, 720p, 50 fps, H.264, NOR, HDTV]

Ответить на тему

Автор Сообщение

K. Valera


Стаж: 4 года 7 месяцев

Сообщений: 781

Украина

Торрент-статистика

post 09-Авг-2016 12:22

Quote


Чемпионат Норвегии 2016-17 / Tippeligaen + OBOS-ligaen / Fotballkveld 19 runde / Обзор 19-го / TV2 Zebra HD

Год выпуска: 08.08.2016
Вид спорта: Футбол
Релиз:
Aвтор рипа: K. Valera
Продолжительность: 00:49:47
Канал:
Комментарий: Профессиональный
Язык комментариев: Норвежский
Качество: HDTV / Формат: *.ts / Видео Кодек: AVC / Аудио Кодек: MPEG
Видео: 1280x720 (16/9), 50,000 fps, 9 761 Kbps
Аудио: 256 Kbps, 48 KHz, MPEG, mp2 2.0 channels
Запись видео: Openbox SX6 HD
Программа корректировки видео: Cypheros TS-Doctor ver. 1.2.22

Код:

General
ID                             : 68 (0x44)
Complete name                  : E:\Fotballkveld - 19 runde 2016 TV 2 Zebra HD.ts
Format                         : MPEG-TS
File size                      : 3.67 GiB
Duration                       : 49mn 47s
Overall bit rate mode          : Variable
Overall bit rate               : 10.5 Mbps

Video
ID                             : 1291 (0x50B)
Menu ID                        : 7065 (0x1B99)
Format                         : AVC
Format/Info                    : Advanced Video Codec
Format profile                 : High@L4
Format settings, CABAC         : Yes
Format settings, ReFrames      : 4 frames
Codec ID                       : 27
Duration                       : 49mn 46s
Bit rate                       : 9 761 Kbps
Width                          : 1 280 pixels
Height                         : 720 pixels
Display aspect ratio           : 16:9
Frame rate                     : 50.000 fps
Color space                    : YUV
Chroma subsampling             : 4:2:0
Bit depth                      : 8 bits
Scan type                      : Progressive
Bits/(Pixel*Frame)             : 0.212
Stream size                    : 3.39 GiB (93%)

Audio
ID                             : 3378 (0xD32)
Menu ID                        : 7065 (0x1B99)
Format                         : MPEG Audio
Format version                 : Version 1
Format profile                 : Layer 2
Codec ID                       : 3
Duration                       : 49mn 46s
Bit rate mode                  : Constant
Bit rate                       : 256 Kbps
Channel(s)                     : 2 channels
Sampling rate                  : 48.0 KHz
Compression mode               : Lossy
Delay relative to video        : 64ms
Stream size                    : 91.1 MiB (2%)
Language                       : Norwegian
Скриншоты:


_________________
webmoney: R102437980674, U865336828210, Bitcoin: 1C5RGE4438bq3VfVUEfcw63rmYrb6Sgr29. Файлы не конвертирую. Готов реанимировать почти все свои раздачи.
Profile PM
Ответить на тему