Чемпионат Португалии 2016-17 / Liga NOS / HIGHLIGHTS Liga Nos J1 / 1-й тур / Обзор матчей / SFR Sport 2 HD [16.08.2016, 1080i, H.264, FR, HDTVRip]

Ответить на тему

Автор Сообщение

K. Valera


Стаж: 4 года 7 месяцев

Сообщений: 781

Украина

Торрент-статистика

post 20-Авг-2016 18:46

Quote


Чемпионат Португалии 2016-17 / Liga NOS / HIGHLIGHTS Liga Nos J1 / 1-й тур / Обзор матчей / SFR Sport 2 HD




Год выпуска: 16.08.2016
Вид : Футбол
Релиз:
Aвтор рипа: K. Valera
Продолжительность: 00:26:01
Канал:
Комментарий: Профессиональный
Язык комментариев: Французский
Качество: HDTV / Формат: *.ts / Видео Кодек: AVC / Аудио Кодек: MPEG
Видео: 1920x1080 (16/9), 25,000 fps, 5 449 Kbps
Аудио: 192 Kbps, 48 KHz, MPEG mp2 2.0 channels (French)
Запись видео:
Программа корректировки видео: Cypheros TS-Doctor ver. 1.2.22

Код:

General
ID                             : 20800 (0x5140)
Complete name                  : D:\111\HIGHLIGHTS Liga Nos J1 2016.ts
Format                         : MPEG-TS
File size                      : 1.08 GiB
Duration                       : 26mn 1s
Overall bit rate mode          : Variable
Overall bit rate               : 5 937 Kbps

Video
ID                             : 1811 (0x713)
Menu ID                        : 801 (0x321)
Format                         : AVC
Format/Info                    : Advanced Video Codec
Format profile                 : High@L4
Format settings, CABAC         : Yes
Format settings, ReFrames      : 3 frames
Codec ID                       : 27
Duration                       : 26mn 0s
Bit rate                       : 5 449 Kbps
Width                          : 1 920 pixels
Height                         : 1 080 pixels
Display aspect ratio           : 16:9
Frame rate                     : 25.000 fps
Standard                       : Component
Color space                    : YUV
Chroma subsampling             : 4:2:0
Bit depth                      : 8 bits
Scan type                      : MBAFF
Scan order                     : Top Field First
Bits/(Pixel*Frame)             : 0.105
Stream size                    : 1 014 MiB (92%)
Color range                    : Limited
Color primaries                : BT.709
Transfer characteristics       : BT.709
Matrix coefficients            : BT.709

Audio
ID                             : 1812 (0x714)
Menu ID                        : 801 (0x321)
Format                         : MPEG Audio
Format version                 : Version 1
Format profile                 : Layer 2
Codec ID                       : 3
Duration                       : 26mn 0s
Bit rate mode                  : Constant
Bit rate                       : 192 Kbps
Channel(s)                     : 2 channels
Sampling rate                  : 48.0 KHz
Compression mode               : Lossy
Delay relative to video        : 10ms
Stream size                    : 35.7 MiB (3%)
Скриншоты

_________________
webmoney: R102437980674, U865336828210, Bitcoin: 1C5RGE4438bq3VfVUEfcw63rmYrb6Sgr29. Файлы не конвертирую. Готов реанимировать почти все свои раздачи.
Profile PM
Ответить на тему