Чемпионат Чехии 2016-17 / ePojisteni.cz Liga / 7-й тур / Обзор тура / Studio fotbal O pořadu Dohráno / ČT Sport HD [19.09.2016, 1080i, H.264, MPEG, AC3, CZE, HDTV, SAT]

Ответить на тему

Автор Сообщение

K. Valera


Стаж: 4 года 7 месяцев

Сообщений: 781

Украина

Торрент-статистика

post 19-Сен-2016 14:24

Quote


Чемпионат Чехии 2016-17 / ePojisteni.cz Liga / 7-й тур / Обзор тура / Studio fotbal O pořadu Dohráno / ČT Sport HD




Год выпуска: 19.09.2016
Вид спорта: Футбол
Релиз:
Aвтор рипа: K. Valera
Продолжительность: 00:36:35
Канал:
Комментарий: Профессиональный
Язык комментариев: Чешский
Качество: HDTV / Формат: *.ts / Видео Кодек: AVC / Аудио Кодек: MPEG
Видео: 1920x1080 (16/9), 25,000 fps, 8 770 Kbps
Аудио 1: 256 Kbps, 48 KHz, MPEG, mp2 2.0 channels Чешский
Аудио 2: 448 Kbps, 48 KHz, Dolby AC3, 2.0 channels Чешский
Запись видео: Openbox SX6 HD
Программа корректировки видео: Cypheros TS-Doctor ver. 1.2.22
Výsledky, reportáže z utkání a nejdůležitější momenty uplynulého kola fotbalové ePojisteni.cz ligy

Код:

General
ID                             : 710 (0x2C6)
Complete name                  : D:\111\ePojistenicz liga 7 kolo 2016.ts
Format                         : MPEG-TS
File size                      : 2.55 GiB
Duration                       : 36mn 34s
Overall bit rate mode          : Variable
Overall bit rate               : 9 974 Kbps

Video
ID                             : 651 (0x28B)
Menu ID                        : 31012 (0x7924)
Format                         : AVC
Format/Info                    : Advanced Video Codec
Format profile                 : High@L4.1
Format settings, CABAC         : Yes
Format settings, ReFrames      : 4 frames
Codec ID                       : 27
Duration                       : 36mn 34s
Bit rate                       : 8 770 Kbps
Width                          : 1 920 pixels
Height                         : 1 080 pixels
Display aspect ratio           : 16:9
Frame rate                     : 25.000 fps
Standard                       : Component
Color space                    : YUV
Chroma subsampling             : 4:2:0
Bit depth                      : 8 bits
Scan type                      : MBAFF
Scan order                     : Top Field First
Bits/(Pixel*Frame)             : 0.169
Stream size                    : 2.24 GiB (88%)
Encryption                     : Encrypted
Color range                    : Limited
Color primaries                : BT.709
Transfer characteristics       : BT.709
Matrix coefficients            : BT.709

Audio #1
ID                             : 661 (0x295)
Menu ID                        : 31012 (0x7924)
Format                         : MPEG Audio
Format version                 : Version 1
Format profile                 : Layer 2
Mode                           : Joint stereo
Mode extension                 : Intensity Stereo + MS Stereo
Codec ID                       : 4
Duration                       : 36mn 34s
Bit rate mode                  : Constant
Bit rate                       : 256 Kbps
Channel(s)                     : 2 channels
Sampling rate                  : 48.0 KHz
Compression mode               : Lossy
Delay relative to video        : 47ms
Stream size                    : 67.0 MiB (3%)
Language                       : Czech
Encryption                     : Encrypted

Audio #2
ID                             : 668 (0x29C)
Menu ID                        : 31012 (0x7924)
Format                         : AC-3
Format/Info                    : Audio Coding 3
Mode extension                 : CM (complete main)
Format settings, Endianness    : Big
Codec ID                       : 6
Duration                       : 36mn 34s
Bit rate mode                  : Constant
Bit rate                       : 448 Kbps
Channel(s)                     : 2 channels
Channel positions              : Front: L R
Sampling rate                  : 48.0 KHz
Compression mode               : Lossy
Delay relative to video        : 48ms
Stream size                    : 117 MiB (4%)
Language                       : Czech
Encryption                     : Encrypted
Скриншоты:

_________________
webmoney: R102437980674, U865336828210, Bitcoin: 1C5RGE4438bq3VfVUEfcw63rmYrb6Sgr29. Файлы не конвертирую. Готов реанимировать почти все свои раздачи.


Последний раз редактировалось: K. Valera (2016-09-26 21:46), всего редактировалось 2 раз(а)
Profile PM

Lamin80


Стаж: 3 года 9 месяцев

Сообщений: 243

Откуда: Горловка Донецкая Народная Республика

Россия

Торрент-статистика

post 19-Сен-2016 18:21 (спустя 3 часа)

Quote


Это обзор 1-го и 2-го дивизиона Чехии) 2-й не в полном объеме
Profile PM

K. Valera


Стаж: 4 года 7 месяцев

Сообщений: 781

Украина

Торрент-статистика

post 19-Сен-2016 21:12 (спустя 2 часа 51 минута)

Quote


У меня продолжительность: 00:36:35, по программе 42 минуты
но там минут 20 потом реклама шла, да и в начале тоже вкинулина пару минут. Так что ничего не оборвано. По поводу полного объёма наверное на канал в Чехию надо гневные письма писать.

_________________
webmoney: R102437980674, U865336828210, Bitcoin: 1C5RGE4438bq3VfVUEfcw63rmYrb6Sgr29. Файлы не конвертирую. Готов реанимировать почти все свои раздачи.
Profile PM
Ответить на тему