Чемпионат Норвегии 2016-17 / Tippeligaen + OBOS-ligaen / Fotballkveld 26 runde / Обзор 26-го (27-го) тура / TV2 Zebra HD [02.10.2016, 720p, 50 fps, H.264, NOR, HDTV]

Ответить на тему

Автор Сообщение

K. Valera


Стаж: 4 года 7 месяцев

Сообщений: 778

Украина

Торрент-статистика

post 03-Окт-2016 12:13

Quote


Чемпионат Норвегии 2016-17 / Tippeligaen + OBOS-ligaen / Fotballkveld 26 runde / Обзор 26-го (27-го) тура / TV2 Zebra HD




Год выпуска: 02.10.2016
Вид спорта: Футбол
Релиз:
Aвтор рипа: K. Valera
Продолжительность: 00:49:37
Канал:
Комментарий: Профессиональный
Язык комментариев: Норвежский
Качество: HDTV / Формат: *.ts / Видео Кодек: AVC / Аудио Кодек: MPEG
Видео: 1280x720 (16/9), 50,000 fps, 7 686 Kbps
Аудио: 256 Kbps, 48 KHz, MPEG, mp2 2.0 channels
Запись видео: Openbox SX6 HD
Программа корректировки видео: Cypheros TS-Doctor ver. 1.2.22


Код:

General
ID                             : 68 (0x44)
Complete name                  : D:\111\Fotballkveld - 26 runde 2016 TV 2 Zebra HD.ts
Format                         : MPEG-TS
File size                      : 2.90 GiB
Duration                       : 49mn 37s
Overall bit rate mode          : Variable
Overall bit rate               : 8 358 Kbps

Video
ID                             : 1291 (0x50B)
Menu ID                        : 7065 (0x1B99)
Format                         : AVC
Format/Info                    : Advanced Video Codec
Format profile                 : High@L4
Format settings, CABAC         : Yes
Format settings, ReFrames      : 4 frames
Codec ID                       : 27
Duration                       : 49mn 36s
Bit rate                       : 7 686 Kbps
Width                          : 1 280 pixels
Height                         : 720 pixels
Display aspect ratio           : 16:9
Frame rate                     : 50.000 fps
Color space                    : YUV
Chroma subsampling             : 4:2:0
Bit depth                      : 8 bits
Scan type                      : Progressive
Bits/(Pixel*Frame)             : 0.167
Stream size                    : 2.66 GiB (92%)

Audio
ID                             : 3378 (0xD32)
Menu ID                        : 7065 (0x1B99)
Format                         : MPEG Audio
Format version                 : Version 1
Format profile                 : Layer 2
Mode                           : Joint stereo
Mode extension                 : Intensity Stereo + MS Stereo
Codec ID                       : 3
Duration                       : 49mn 36s
Bit rate mode                  : Constant
Bit rate                       : 256 Kbps
Channel(s)                     : 2 channels
Sampling rate                  : 48.0 KHz
Compression mode               : Lossy
Delay relative to video        : 95ms
Stream size                    : 90.8 MiB (3%)
Language                       : Norwegian
Скриншоты:


_________________
webmoney: R102437980674, U865336828210, Bitcoin: 1C5RGE4438bq3VfVUEfcw63rmYrb6Sgr29. Файлы не конвертирую. Готов реанимировать почти все свои раздачи.


Последний раз редактировалось: K. Valera (2016-10-11 18:52), всего редактировалось 1 раз
Profile PM

Evgendo


Стаж: 4 года 4 месяца

Сообщений: 92

Бразилия

Торрент-статистика

post 03-Окт-2016 18:42 (спустя 6 часов)

Quote


а обзор чемпа турции есть возможность записывать? по моему весьма интересный чемпионат)
Profile PM

K. Valera


Стаж: 4 года 7 месяцев

Сообщений: 778

Украина

Торрент-статистика

post 03-Окт-2016 19:31 (спустя 49 минут)

Quote


Evgendo писал(а):

а обзор чемпа турции есть возможность записывать? по моему весьма интересный чемпионат)
Есть, но не успеваю всё. К тому же канал ушёл на котором полные обзоры были, а по другому только на 15 минут. Давно я туда не заглядывал.

_________________
webmoney: R102437980674, U865336828210, Bitcoin: 1C5RGE4438bq3VfVUEfcw63rmYrb6Sgr29. Файлы не конвертирую. Готов реанимировать почти все свои раздачи.
Profile PM

Evgendo


Стаж: 4 года 4 месяца

Сообщений: 92

Бразилия

Торрент-статистика

post 03-Окт-2016 19:37 (спустя 5 минут)

Quote


K. Valera писал(а):

Evgendo писал(а):

а обзор чемпа турции есть возможность записывать? по моему весьма интересный чемпионат)
Есть, но не успеваю всё. К тому же канал ушёл на котором полные обзоры были, а по другому только на 15 минут. Давно я туда не заглядывал.
понятно)
Profile PM
Ответить на тему