Чемпионат Норвегии 2016-17 / Tippeligaen + OBOS-ligaen / Fotballkveld 28 runde / Обзор 28-го (29-го) тура / TV2 Zebra HD [23.10.2016, 720p, 50 fps, H.264, NOR, HDT]

Ответить на тему

Автор Сообщение

K. Valera


Стаж: 4 года 7 месяцев

Сообщений: 781

Украина

Торрент-статистика

post 24-Окт-2016 12:22

Quote


Чемпионат Норвегии 2016-17 / Tippeligaen + OBOS-ligaen / Fotballkveld 28 runde / Обзор 28-го (29-го) тура / TV2 Zebra HD




Год выпуска: 23.10.2016
Вид спорта: Футбол
Релиз:
Aвтор рипа: K. Valera
Продолжительность: 00:46:04
Канал:
Комментарий: Профессиональный
Язык комментариев: Норвежский
Качество: HDTV / Формат: *.ts / Видео Кодек: AVC / Аудио Кодек: MPEG
Видео: 1280x720 (16/9), 50,000 fps, 7 543 Kbps
Аудио: 256 Kbps, 48 KHz, MPEG, mp2 2.0 channels
Запись видео: U2C S+ MINI HD
Программа корректировки видео: Cypheros TS-Doctor ver. 1.2.22


Код:

General
ID                             : 68 (0x44)
Complete name                  : E:\Fotballkveld - 28 runde 2016 TV 2 Zebra HD.ts
Format                         : MPEG-TS
File size                      : 2.64 GiB
Duration                       : 46mn 3s
Overall bit rate mode          : Variable
Overall bit rate               : 8 207 Kbps

Video
ID                             : 1291 (0x50B)
Menu ID                        : 7065 (0x1B99)
Format                         : AVC
Format/Info                    : Advanced Video Codec
Format profile                 : High@L4
Format settings, CABAC         : Yes
Format settings, ReFrames      : 4 frames
Codec ID                       : 27
Duration                       : 46mn 3s
Bit rate                       : 7 543 Kbps
Width                          : 1 280 pixels
Height                         : 720 pixels
Display aspect ratio           : 16:9
Frame rate                     : 50.000 fps
Color space                    : YUV
Chroma subsampling             : 4:2:0
Bit depth                      : 8 bits
Scan type                      : Progressive
Bits/(Pixel*Frame)             : 0.164
Stream size                    : 2.43 GiB (92%)

Audio
ID                             : 3378 (0xD32)
Menu ID                        : 7065 (0x1B99)
Format                         : MPEG Audio
Format version                 : Version 1
Format profile                 : Layer 2
Codec ID                       : 3
Duration                       : 46mn 4s
Bit rate mode                  : Constant
Bit rate                       : 256 Kbps
Channel(s)                     : 2 channels
Sampling rate                  : 48.0 KHz
Compression mode               : Lossy
Delay relative to video        : 4ms
Stream size                    : 84.4 MiB (3%)
Language                       : Norwegian
Скриншоты:


_________________
webmoney: R102437980674, U865336828210, Bitcoin: 1C5RGE4438bq3VfVUEfcw63rmYrb6Sgr29. Файлы не конвертирую. Готов реанимировать почти все свои раздачи.
Profile PM

rooneyfool


Стаж: 5 лет 10 месяцев

Сообщений: 3

Откуда: Калининград

Россия

Торрент-статистика

post 12-Ноя-2016 12:46 (спустя 19 дней)

Quote


А обзор последнего тура будет??? Спасибо
Profile PM

K. Valera


Стаж: 4 года 7 месяцев

Сообщений: 781

Украина

Торрент-статистика

post 14-Ноя-2016 15:57 (спустя 2 дня 3 часа)

Quote


rooneyfool писал(а):

А обзор последнего тура будет??? Спасибо
Не будет. Непривычно рано начали передачу, я уже включил в концовке, не успел. Повторы, как в прошлом году, не идут.

_________________
webmoney: R102437980674, U865336828210, Bitcoin: 1C5RGE4438bq3VfVUEfcw63rmYrb6Sgr29. Файлы не конвертирую. Готов реанимировать почти все свои раздачи.
Profile PM
Ответить на тему