Чемпионат Швеции 2016-17 / Allsvenskan / Fotbollsmåndag / Обзор 29-го тура / C More Sport HD [31.10.2016, 1080i, H.264, MPEG, SWE, HDTV, SAT]

Ответить на тему

Автор Сообщение

K. Valera


Стаж: 4 года 7 месяцев

Сообщений: 781

Украина

Торрент-статистика

post 02-Ноя-2016 16:51

Quote


Чемпионат Швеции 2016-17 / Allsvenskan / Fotbollsmåndag / Обзор 29-го тура / C More Sport HD




Год выпуска: 31.10.2016
Вид спорта: Футбол
Релиз:
Aвтор рипа: K. Valera
Продолжительность: 00:26:04
Канал:
Комментарий: Профессиональный
Язык комментариев: Шведский
Качество: HDTV / Формат: *.ts / Видео Кодек: AVC / Аудио Кодек: MPEG
Видео: 1920x1080 (16/9), 25,000 fps, 8 754 Kbps
Аудио: 256 Kbps, 48 KHz, MPEG, mp2 2.0 channels Swedish
Запись видео: Openbox SX6 HD
Программа корректировки видео: Cypheros TS-Doctor ver. 1.2.22


Код:

General
ID                             : 14 (0xE)
Complete name                  : E:\Fotbollsmandag R29 2016.ts
Format                         : MPEG-TS
File size                      : 1.73 GiB
Duration                       : 26mn 3s
Overall bit rate mode          : Variable
Overall bit rate               : 9 482 Kbps

Video
ID                             : 1017 (0x3F9)
Menu ID                        : 1404 (0x57C)
Format                         : AVC
Format/Info                    : Advanced Video Codec
Format profile                 : High@L4
Format settings, CABAC         : Yes
Format settings, ReFrames      : 3 frames
Format settings, GOP           : M=4, N=12
Codec ID                       : 27
Duration                       : 26mn 3s
Bit rate                       : 8 754 Kbps
Width                          : 1 920 pixels
Height                         : 1 080 pixels
Display aspect ratio           : 16:9
Frame rate                     : 25.000 fps
Standard                       : Component
Color space                    : YUV
Chroma subsampling             : 4:2:0
Bit depth                      : 8 bits
Scan type                      : MBAFF
Scan order                     : Top Field First
Bits/(Pixel*Frame)             : 0.169
Stream size                    : 1.59 GiB (92%)
Color range                    : Limited
Color primaries                : BT.709
Transfer characteristics       : BT.709
Matrix coefficients            : BT.709

Audio
ID                             : 3017 (0xBC9)
Menu ID                        : 1404 (0x57C)
Format                         : MPEG Audio
Format version                 : Version 1
Format profile                 : Layer 2
Codec ID                       : 3
Duration                       : 26mn 3s
Bit rate mode                  : Constant
Bit rate                       : 256 Kbps
Channel(s)                     : 2 channels
Sampling rate                  : 48.0 KHz
Compression mode               : Lossy
Delay relative to video        : 184ms
Stream size                    : 47.7 MiB (3%)
Language                       : Swedish
Скриншоты:

_________________
webmoney: R102437980674, U865336828210, Bitcoin: 1C5RGE4438bq3VfVUEfcw63rmYrb6Sgr29. Файлы не конвертирую. Готов реанимировать почти все свои раздачи.
Profile PM
Ответить на тему