Чемпионат Австралии 2016-17 / 1-5-й тур / Обзор матчей / FOX Sports [10-11.2016, HD, 720p, H264, EN, SAT]

Ответить на тему

Автор Сообщение

Chameleon


Стаж: 6 лет

Сообщений: 3701

Откуда: Tyumen

Россия

Торрент-статистика

post 12-Ноя-2016 14:16

Quote




Страна: Австралия.
Турнир: Чемпионат Австралии 2016-17. 1-5-й тур.
Тип передачи: Обзор матчей.
Дата матча: 10-11.2016
Телеканал: FOX Sports
Язык комментариев: English
Продолжительность: ***
Формат видео: MP4
Видео кодек, разрешение, ...: H264, 1280x720, 4 500 kbps, 50 fps
Аудио кодек, ...: AAC, 160 kbps, 2 ch, 48 kHz

Код:

Format                      : MPEG-4
Format profile              : Base Media
Codec ID                    : isom
File size                   : 903 MiB
Duration                    : 27mn 4s
Overall bit rate mode       : Variable
Overall bit rate            : 4 666 Kbps
Encoded date                : UTC 2016-10-10 14:45:08
Tagged date                 : UTC 2016-10-10 14:45:08

Video
ID                          : 1
Format                      : AVC
Format/Info                 : Advanced Video Codec
Format profile              : High@L4.1
Format settings, CABAC      : Yes
Format settings, ReFrames   : 8 frames
Codec ID                    : avc1
Codec ID/Info               : Advanced Video Coding
Duration                    : 27mn 4s
Bit rate                    : 4 502 Kbps
Maximum bit rate            : 20.8 Mbps
Width                       : 1 280 pixels
Height                      : 720 pixels
Display aspect ratio        : 16:9
Frame rate mode             : Constant
Frame rate                  : 50.000 fps
Color space                 : YUV
Chroma subsampling          : 4:2:0
Bit depth                   : 8 bits
Scan type                   : Progressive
Bits/(Pixel*Frame)          : 0.098
Stream size                 : 870 MiB (96%)
Title                       : Video
Writing library             : x264 core 148 r2597 e86f3a1
Encoding settings           : cabac=1 / ref=8 / deblock=1:0:0 / analyse=0x3:0x113 / me=umh / subme=8 / psy=1 / psy_rd=1.00:0.00 / mixed_ref=1 / me_range=16 / chroma_me=1 / trellis=2 / 8x8dct=1 / cqm=0 / deadzone=21,11 / fast_pskip=0 / chroma_qp_offset=-2 / threads=12 / lookahead_threads=3 / sliced_threads=0 / nr=0 / decimate=0 / interlaced=0 / bluray_compat=0 / constrained_intra=0 / bframes=4 / b_pyramid=2 / b_adapt=2 / b_bias=0 / direct=3 / weightb=1 / open_gop=0 / weightp=2 / keyint=500 / keyint_min=50 / scenecut=40 / intra_refresh=0 / rc_lookahead=70 / rc=2pass / mbtree=1 / bitrate=4502 / ratetol=1.0 / qcomp=0.60 / qpmin=0 / qpmax=69 / qpstep=4 / cplxblur=20.0 / qblur=0.5 / ip_ratio=1.40 / aq=2:1.00
Encoded date                : UTC 2016-10-10 14:45:08
Tagged date                 : UTC 2016-10-10 14:45:14

Audio
ID                          : 2
Format                      : AAC
Format/Info                 : Advanced Audio Codec
Format profile              : LC
Codec ID                    : 40
Duration                    : 27mn 4s
Bit rate mode               : Variable
Bit rate                    : 167 Kbps
Maximum bit rate            : 193 Kbps
Channel(s)                  : 2 channels
Channel positions           : Front: L R
Sampling rate               : 48.0 KHz
Compression mode            : Lossy
Stream size                 : 32.3 MiB (4%)
Title                       : 
Encoded date                : UTC 2016-10-10 13:51:01
Tagged date                 : UTC 2016-10-10 14:45:14

02:16:42


_________________
Насчет матчей чемпионата Аргентины, Бразилии, Южной Кореи и других лиг пишите в ЛС.
Profile PM
Ответить на тему