Чемпионат Турции 2016-17 / 11-й тур / Süper Lig 11 Hafta Goller / Обзор голов тура / TRT SPOR HD [22.11.2016, 1080i, H.264, TUR, HDTV, SAT]

Ответить на тему

Автор Сообщение

K. Valera


Стаж: 4 года 7 месяцев

Сообщений: 782

Украина

Торрент-статистика

post 22-Ноя-2016 17:32

Quote


Чемпионат Турции 2016-17 / 11-й тур / Süper Lig 11 Hafta Goller / Обзор голов тура / TRT SPOR HD

Год выпуска: 22.11.2016
Вид : Футбол
Релиз:
Aвтор рипа: K. Valera
Продолжительность: 00:26:24
Канал:
Комментарий: Профессиональный
Язык комментариев: Турецкий
Качество: HDTV / Формат: *.ts / Видео Кодек: AVC / Аудио Кодек: MPEG
Видео: 1920x1080 (16/9), 25,000 fps, 11.0 Mbps
Аудио: 192 Kbps, 48 KHz, MPEG, mp2 2.0 channels
Запись видео: Openbox SX6 HD
Программа корректировки видео: Cypheros TS-Doctor ver. 1.2.22

Код:

General
ID                             : 31001 (0x7919)
Complete name                  : D:\111\Süper Lig  (Kısa)  Özetler 11 Hafta 2016.ts
Format                         : MPEG-TS
File size                      : 2.18 GiB
Duration                       : 26mn 24s
Overall bit rate mode          : Variable
Overall bit rate               : 11.8 Mbps

Video
ID                             : 1603 (0x643)
Menu ID                        : 10603 (0x296B)
Format                         : AVC
Format/Info                    : Advanced Video Codec
Format profile                 : High@L4
Format settings, CABAC         : Yes
Format settings, ReFrames      : 4 frames
Codec ID                       : 27
Duration                       : 26mn 23s
Bit rate                       : 11.0 Mbps
Width                          : 1 920 pixels
Height                         : 1 080 pixels
Display aspect ratio           : 16:9
Frame rate                     : 25.000 fps
Color space                    : YUV
Chroma subsampling             : 4:2:0
Bit depth                      : 8 bits
Scan type                      : MBAFF
Scan order                     : Top Field First
Bits/(Pixel*Frame)             : 0.213
Stream size                    : 2.03 GiB (93%)

Audio
ID                             : 1703 (0x6A7)
Menu ID                        : 10603 (0x296B)
Format                         : MPEG Audio
Format version                 : Version 1
Format profile                 : Layer 2
Codec ID                       : 3
Duration                       : 26mn 23s
Bit rate mode                  : Constant
Bit rate                       : 192 Kbps
Channel(s)                     : 2 channels
Sampling rate                  : 48.0 KHz
Compression mode               : Lossy
Delay relative to video        : 81ms
Stream size                    : 36.2 MiB (2%)
Language                       : Turkish
Скриншоты

_________________
webmoney: R102437980674, U865336828210, Bitcoin: 1C5RGE4438bq3VfVUEfcw63rmYrb6Sgr29. Файлы не конвертирую. Готов реанимировать почти все свои раздачи.
Profile PM
Ответить на тему