Poland » Ekstraklasa 2022-23 » 28 Round » Highlights [18.04.2023, 720p, 50 fps, H.264, GER, HDTVRip]

Ответить на тему

Автор Сообщение

Balon


Стаж: 13 лет

Сообщений: 3782

Откуда: Из страны Маскотов

Фиджи

Торрент-статистика

post 03-Авг-2023 16:10

Quote


Poland Ekstraklasa 2022-23 / Matchday 28 / Highlights

Год выпуска: 2023
Жанр: Обзор
Вид спорта: Футбол

Продолжительность: 00:26:04
Страна: Польша

Телеканал: Sport Digital
Комментарий: Немецкий (Одноголосый)

Автор рипа/записи: Balon
!!! Если на моей раздаче нет сидов, пишите либо в Личку на RG, либо в Телеграм
!!! Рипы и обзоры не удаляю, а спустя время отправляю на виртуальные диски для освобождения места под новые раздачи, в любой момент по просьбе вернусь
Качество: HDTVRip
Формат: MKV
Видео кодек: H.264
Аудио кодек: AC3
Видео: 1280x720 (16:9), 50 fps, 4171 Kbps
Аудио: 48 kHz, Audio Coding 3, 2 ch, 128 kbps


Код:

Общее
Уникальный идентификатор                 : 323206204273630698166146512486205658506 (0xF327402E0580D4FF8F1665F8A08A958A)
Полное имя                               : F:\Relize\Poland_Ekstraklasa\2023.04.18_Poland_Ekstraklasa_2022-23_R_28_Highlights_HDTVRip_720p_50_fps_GER_[rgfootball.net].mkv
Формат                                   : Matroska
Версия формата                           : Version 4
Размер файла                             : 818 Мбайт
Продолжительность                        : 26 м. 4 с.
Режим общего битрейта                    : Переменный
Общий поток                              : 4 386 Кбит/сек
Программа кодирования                    : Lavf59.30.100
Библиотека кодирования                   : Lavf59.30.100
ErrorDetectionType                       : Per level 1

Видео
Идентификатор                            : 1
Формат                                   : AVC
Формат/Информация                        : Advanced Video Codec
Профиль формата                          : High@L3.2
Настройки формата                        : CABAC / 4 Ref Frames
Параметр CABAC формата                   : Да
Параметр RefFrames формата               : 4 кадра
Идентификатор кодека                     : V_MPEG4/ISO/AVC
Продолжительность                        : 26 м. 4 с.
Вид битрейта                             : Переменный
Битрейт                                  : 4 171 Кбит/сек
Максимальный битрейт                     : 4 499 Кбит/сек
Ширина                                   : 1 280 пикселей
Высота                                   : 720 пикселей
Соотношение сторон                       : 16:9
Режим частоты кадров                     : Постоянный
Частота кадров                           : 50,000 кадров/сек
Стандарт вещания                         : Component
Цветовое пространство                    : YUV
Субдискретизация насыщенности            : 4:2:0
Битовая глубина                          : 8 бит
Тип развёртки                            : Прогрессивная
Бит/(Пиксели*Кадры)                      : 0.091
Размер потока                            : 778 Мбайт (95%)
Библиотека кодирования                   : Lavc59.42.102 h264_qsv
Default                                  : Нет
Forced                                   : Нет
Цветовой диапазон                        : Limited
Основные цвета                           : BT.709
Характеристики трансфера                 : BT.709
Коэффициенты матрицы                     : BT.709

Аудио
Идентификатор                            : 2
Формат                                   : AC-3
Формат/Информация                        : Audio Coding 3
Коммерческое название                    : Dolby Digital
Идентификатор кодека                     : A_AC3
Продолжительность                        : 26 м. 4 с.
Вид битрейта                             : Постоянный
Битрейт                                  : 128 Кбит/сек
Каналы                                   : 2 канала
Channel layout                           : L R
Частота                                  : 48,0 КГц
Частота кадров                           : 31,250 кадров/сек (1536 SPF)
Битовая глубина                          : 32 бит
Метод сжатия                             : С потерями
Задержка видео                           : -5 мс.
Размер потока                            : 23,9 Мбайт (3%)
Библиотека кодирования                   : Lavc59.42.102 ac3
Язык                                     : German
Service kind                             : Complete Main
Default                                  : Нет
Forced                                   : Нет

_________________
На помощь с подписками, если не жалко / to help with subscriptions:
https://yoomoney.ru/to/4100118456939053
4006 8006 0043 4590 Сбер (Игорь Сергеевич Б.)
Будет хоть какая-то помощь - будет больше желания и сил продолжать выкладывать материал. Да что я объясняю, сами понимаете
Profile PM
Ответить на тему