Новости спорта эфир от 30.03.2011 10.00 [30.03.2011, SD, H264, RU, TVRip]

Ответить на тему

Автор Сообщение

Barca84


Стаж: 7 лет

Сообщений: 457

СССР

Торрент-статистика

post 30-Мар-2011 10:54

Quote


Новости спорта эфир от 30.03.2011 10.00 [30.03.2011, SD, H264, RU, TVRip]

Год выпуска: 2011
Продолжительность: 00:22:22
Комментарий: Профессиональный (одноголосый)
Язык комментариев: Русский
Описание: Утренние новости спорта на НТВ+ эфир от 30.03.2011
Доп. информация: Рип собственный
Качество: TVRip
Формат: AVI
Видео кодек: H.264
Аудио кодек: MP3
Видео: 768 x576 (4:3), 25 fps 1200 kbps
Аудио: 44.1 kHz, 2 ch, 192 kbps


Последний раз редактировалось: Barca84 (2011-03-30 13:27), всего редактировалось 5 раз(а)
Profile PM

kvin22


Стаж: 7 лет

Сообщений: 271

Антарктида

Торрент-статистика

post 30-Мар-2011 11:22 (спустя 27 минут)

Quote


QWQ84
Это не H.264 af

_________________
Profile PM

Barca84


Стаж: 7 лет

Сообщений: 457

СССР

Торрент-статистика

post 30-Мар-2011 11:33 (спустя 11 минут)

Quote


kvin22 писал(а):

QWQ84
Это не H.264 af
C:\Users\Серега\Videos\новости спорт. 30.03.2011.avi
General
Complete name : C:\Users\Серега\Videos\новости спорт. 30.03.2011.avi
Format : AVI
Format/Info : Audio Video Interleave
File size : 223 MiB
Duration : 22mn 22s
Overall bit rate : 1 394 Kbps
Video #0
ID : 0
Format : AVC
Format/Info : Advanced Video Codec
Format profile : Main@L5.1
Format settings, CABAC : Yes
Format settings, ReFrames : 1 frame
Codec ID : H264
Duration : 22mn 22s
Bit rate : 1 193 Kbps
Width : 768 pixels
Height : 576 pixels
Display aspect ratio : 4:3
Frame rate : 25.000 fps
Resolution : 8 bits
Colorimetry : 4:2:0
Scan type : Progressive
Bits/(Pixel*Frame) : 0.108
Stream size : 191 MiB (86%)
Audio #1
ID : 1
Format : MPEG Audio
Format version : Version 1
Format profile : Layer 3
Codec ID : 55
Codec ID/Hint : MP3
Duration : 22mn 22s
Bit rate mode : Constant
Bit rate : 192 Kbps
Channel(s) : 2 channels
Sampling rate : 44.1 KHz
Stream size : 30.7 MiB (14%)
Alignment : Split accross interleaves
Interleave, duration : 45 ms (1.13 video frame)
Interleave, preload duration : 50 ms
Profile PM

vasylius


Стаж: 7 лет

Сообщений: 2422

Откуда: Богуслав Україна

Украина

Торрент-статистика

post 30-Мар-2011 12:51 (спустя 1 час 17 минут)

Quote


QWQ84 писал(а):

Новости футбола
на скринах выжу баскетбол)))

_________________
Помощь релизеру
Qiwi: +380937439260
WebMoney Z741551507021
WebMoney U063781849371
WebMoney R769168965772
Зароботок на вводе капч https://rucaptcha.com?from=1383073
Profile PM

Barca84


Стаж: 7 лет

Сообщений: 457

СССР

Торрент-статистика

post 30-Мар-2011 13:02 (спустя 11 минут)

Quote


Ф.К.Д.К 1927 писал(а):

QWQ84 писал(а):

Новости футбола
на скринах выжу баскетбол)))
Исправил af
Profile PM

post 30-Мар-2011 13:04 (спустя 2 минуты)


Топик был перенесен из форума <b><a class=\"gen\" href=\"viewforum.php?f=30\">Релизы пользователей</a></b> в форум <b><a class=\"gen\" href=\"viewforum.php?f=95\">Информационно-аналитические передачи и спортивная документалистика</a></b><br /><br /><a class=\"gen\" href=\"profile.php?mode=viewprofile&u=91\">Ф.К.Д.К 1927</a>
 

MrGunner


Стаж: 7 лет

Сообщений: 982

Откуда: Moscow City

Сейшельские острова

Торрент-статистика

post 30-Мар-2011 13:19 (спустя 16 минут)

Quote


QWQ84 писал(а):

768 x576
??? А скрины 1024х576

_________________
Profile PM

Barca84


Стаж: 7 лет

Сообщений: 457

СССР

Торрент-статистика

post 30-Мар-2011 13:30 (спустя 11 минут)

Quote


MrGunner писал(а):

QWQ84 писал(а):

768 x576
??? А скрины 1024х576
Так нормально?

добавлено спустя 2 минуты 20 секунд:

Ф.К.Д.К 1927
Ты нечего не попутал?
Вроде сюда надо http://rgfootball.net/viewforum.php?f=17
Profile PM

vasylius


Стаж: 7 лет

Сообщений: 2422

Откуда: Богуслав Україна

Украина

Торрент-статистика

post 30-Мар-2011 13:57 (спустя 27 минут)

Quote


QWQ84
тот подраздел предназначен для новостей футбола!
а ето новости спорта!

_________________
Помощь релизеру
Qiwi: +380937439260
WebMoney Z741551507021
WebMoney U063781849371
WebMoney R769168965772
Зароботок на вводе капч https://rucaptcha.com?from=1383073
Profile PM

Марций


Стаж: 6 лет 10 месяцев

Сообщений: 27

Откуда: Калининград

Россия

Торрент-статистика

post 30-Мар-2011 14:21 (спустя 24 минуты)

Quote


Это новости спорта. Кроме моментов Испания-Литва нету больше футбола. К тому же какой-то множественный глюк во время рассказа о баскетбольном матче Барсы и Панатинаикоса.

_________________
Profile PM

Barca84


Стаж: 7 лет

Сообщений: 457

СССР

Торрент-статистика

post 30-Мар-2011 15:46 (спустя 1 час 24 минуты)

Quote


Марций писал(а):

множественный глюк во время рассказа о баскетбольном матче Барсы и Панатинаикоса.
Да есть такая хрень. В исходнике такого нет.
Profile PM
Ответить на тему