ESPN: Alejandro Luna vs. Naim Nelson & David Benavidez vs. Denis Douglin RBR / SFR Sport 2 HD [05.08.2016, 1080i, H.264, FR, HDTVRip]

Ответить на тему

Автор Сообщение

K. Valera


Стаж: 5 лет 6 месяцев

Сообщений: 873

Украина

Торрент-статистика

post 14-Авг-2016 15:25

Quote


ESPN: Alejandro Luna vs. Naim Nelson & David Benavidez vs. Denis Douglin RBR / SFR Sport 2 HD




Год выпуска: 05.08.2016
Вид : Бокс
Релиз:
Aвтор рипа: K. Valera
Продолжительность: *
Канал:
Комментарий: Профессиональный
Язык комментариев: Французский
Качество: HDTV / Формат: *.ts / Видео Кодек: AVC / Аудио Кодек: MPEG
Видео: 1920x1080 (16/9), 25,000 fps, 5 449 Kbps
Аудио: 192 Kbps, 48 KHz, MPEG mp2 2.0 channels (French)
Запись видео:
Программа корректировки видео: Cypheros TS-Doctor ver. 1.2.22

<< 01:32:41 >>
Пока качаешь, слушай - ar Morow.com ! The Prog Radio ! The Best Progressive Rock of Yesterday and Today... ar

Код:

General
ID                             : 20800 (0x5140)
Complete name                  : E:\Alejandro Luna vs. Naim Nelson.ts
Format                         : MPEG-TS
File size                      : 3.84 GiB
Duration                       : 1h 32mn
Overall bit rate mode          : Variable
Overall bit rate               : 5 936 Kbps

Video
ID                             : 1811 (0x713)
Menu ID                        : 801 (0x321)
Format                         : AVC
Format/Info                    : Advanced Video Codec
Format profile                 : High@L4
Format settings, CABAC         : Yes
Format settings, ReFrames      : 3 frames
Codec ID                       : 27
Duration                       : 1h 32mn
Bit rate                       : 5 449 Kbps
Width                          : 1 920 pixels
Height                         : 1 080 pixels
Display aspect ratio           : 16:9
Frame rate                     : 25.000 fps
Standard                       : Component
Color space                    : YUV
Chroma subsampling             : 4:2:0
Bit depth                      : 8 bits
Scan type                      : MBAFF
Scan order                     : Top Field First
Bits/(Pixel*Frame)             : 0.105
Stream size                    : 3.53 GiB (92%)
Color range                    : Limited
Color primaries                : BT.709
Transfer characteristics       : BT.709
Matrix coefficients            : BT.709

Audio
ID                             : 1812 (0x714)
Menu ID                        : 801 (0x321)
Format                         : MPEG Audio
Format version                 : Version 1
Format profile                 : Layer 2
Codec ID                       : 3
Duration                       : 1h 32mn
Bit rate mode                  : Constant
Bit rate                       : 192 Kbps
Channel(s)                     : 2 channels
Sampling rate                  : 48.0 KHz
Compression mode               : Lossy
Delay relative to video        : 9ms
Stream size                    : 127 MiB (3%)
Скриншоты
In other results on the card, undefeated lightweight Alejandro Luna (21-0, 15 KOs) defeated replacement opponent Naim Nelson (13-2, 1 KOs) by a 10 round unanimous decision. The final judges scores were 99-91, 98-92, 97-93.

_________________
Bitcoin: 1C5RGE4438bq3VfVUEfcw63rmYrb6Sgr29
Profile PM
Ответить на тему