Floyd Mayweather Jr vs Conor McGregor / Первый HD [26.08.2017, 720p 50 fps, H.264, RU, HDTVRip]

Ответить на тему

Автор Сообщение

CSKAfan


Стаж: 4 года 2 месяца

Сообщений: 9378

Казахстан

Торрент-статистика

post 27-Авг-2017 11:55

Quote


Floyd Mayweather Jr vs Conor McGregor


Год выпуска: 2017
Вид спорта: Бокс
Продолжительность: 00:53:46
Язык комментариев: Русский

Релиз:
Качество: HDTVRip [SLOWER]
Формат: MKV
Видео кодек: H.264
Аудио кодек: AC3
Видео: 1280x720 (16:9), 50 fps, H.264 ~4 000 Kbps avg
Аудио 1: 48 kHz, Audio Coding 3, 2 ch, ~128.00 kbps avg
Аудио 2: 48 kHz, Audio Coding 3, 6 ch, ~384.00 kbps avg
Format : Matroska
Format version : Version 4 / Version 2
File size : 1.80 GiB
Duration : 53 min 45 s
Overall bit rate : 4 794 kb/s
Movie name : All Sport on RGFOOTBALL.NET
Writing application : Lavf57.76.100
Writing library : Lavf57.76.100
ErrorDetectionType : Per level 1

Video
ID : 1
Format : AVC
Format/Info : Advanced Video Codec
Format profile : High@L4.1
Format settings, CABAC : Yes
Format settings, RefFrames : 8 frames
Codec ID : V_MPEG4/ISO/AVC
Duration : 53 min 45 s
Bit rate : 4 100 kb/s
Width : 1 280 pixels
Height : 720 pixels
Display aspect ratio : 16:9
Frame rate mode : Constant
Frame rate : 50.000 FPS
Color space : YUV
Chroma subsampling : 4:2:0
Bit depth : 8 bits
Scan type : Progressive
Bits/(Pixel*Frame) : 0.089
Stream size : 1.57 GiB (87%)
Writing library : x264 core 152 r2851 ba24899
Encoding settings : cabac=1 / ref=8 / deblock=1:0:0 / analyse=0x3:0x133 / me=umh / subme=9 / psy=1 / psy_rd=1.00:0.00 / mixed_ref=1 / me_range=16 / chroma_me=1 / trellis=2 / 8x8dct=1 / cqm=0 / deadzone=21,11 / fast_pskip=1 / chroma_qp_offset=-2 / threads=22 / lookahead_threads=1 / sliced_threads=0 / nr=0 / decimate=1 / interlaced=0 / bluray_compat=0 / constrained_intra=0 / bframes=3 / b_pyramid=2 / b_adapt=2 / b_bias=0 / direct=3 / weightb=1 / open_gop=0 / weightp=2 / keyint=250 / keyint_min=25 / scenecut=40 / intra_refresh=0 / rc_lookahead=60 / rc=abr / mbtree=1 / bitrate=4100 / ratetol=1.0 / qcomp=0.60 / qpmin=0 / qpmax=69 / qpstep=4 / ip_ratio=1.40 / aq=1:1.00
Default : Yes
Forced : No
DURATION : 00:53:45.780000000

Audio #1
ID : 2
Format : AC-3
Format/Info : Audio Coding 3
Format settings, Endianness : Big
Codec ID : A_AC3
Duration : 53 min 45 s
Bit rate mode : Constant
Bit rate : 128 kb/s
Channel(s) : 2 channels
Channel positions : Front: L R
Sampling rate : 48.0 kHz
Frame rate : 31.250 FPS (1536 SPF)
Bit depth : 16 bits
Compression mode : Lossy
Stream size : 49.2 MiB (3%)
Language : det
Service kind : Complete Main
Default : Yes
Forced : No
DURATION : 00:53:45.784000000

Audio #2
ID : 3
Format : AC-3
Format/Info : Audio Coding 3
Format settings, Endianness : Big
Codec ID : A_AC3
Duration : 53 min 45 s
Bit rate mode : Constant
Bit rate : 384 kb/s
Channel(s) : 6 channels
Channel positions : Front: L C R, Side: L R, LFE
Sampling rate : 48.0 kHz
Frame rate : 31.250 FPS (1536 SPF)
Bit depth : 16 bits
Compression mode : Lossy
Stream size : 148 MiB (8%)
Language : det
Service kind : Complete Main
Default : Yes
Forced : No
DURATION : 00:53:45.784000000


_________________
QIWI 77759946920
HD БОЛЬШЕ БЕСПЛАТНО НЕ ВЫКЛАДЫВАЮ!ЛС открыто
Profile PM
Ответить на тему