Александр Поветкин - Руслан Чагаев / Alexander Povetkin vs Ruslan Chagaev / Viasat Sport [27.08.2011, SD, AVC, RU, SAT]

Ответить на тему

Автор Сообщение

sabas


Стаж: 6 лет 11 месяцев

Сообщений: 1032

Откуда: Liverpool , "Энфилд Роуд"

Украина

Торрент-статистика

post 28-Авг-2011 13:48

Quote


Александр Поветкин - Руслан Чагаев / Alexander Povetkin vs Ruslan Chagaev


Вид спорта:бокс
Год выпуска: 27.08.2011
Продолжительность: ***
Язык комментариев: Русский
Доп. информация: канал: Виасат спорт

автор: katiesam

Релиз от:
Александр Поветкин - Руслан Чагаев (бой полностью).flv
General
Complete name : Александр Поветкин - Руслан Чагаев (бой полностью).flv
Format : Flash Video
File size : 351 MiB
Duration : 59mn 5s
Overall bit rate : 832 Kbps
httphostheader : v6.nonxt3.c.youtube.com
Video
Format : AVC
Format/Info : Advanced Video Codec
Format profile : Main@L3.0
Format settings, CABAC : Yes
Format settings, ReFrames : 3 frames
Format settings, GOP : M=1, N=50
Codec ID : 7
Duration : 59mn 5s
Bit rate : 695 Kbps
Width : 640 pixels
Height : 356 pixels
Display aspect ratio : 16:9
Frame rate mode : Constant
Frame rate : 25.000 fps
Color space : YUV
Chroma subsampling : 4:2:0
Bit depth : 8 bits
Scan type : Progressive
Bits/(Pixel*Frame) : 0.122
Stream size : 294 MiB (84%)
Audio
Format : AAC
Format/Info : Advanced Audio Codec
Format profile : LC
Codec ID : 10
Duration : 59mn 5s
Bit rate : 129 Kbps
Channel(s) : 2 channels
Channel positions : Front: L R
Sampling rate : 44.1 KHz
Compression mode : Lossy
Stream size : 54.4 MiB (15%)

Видео: 640x356 (1.76:1), 25 fps, ~832 kbps avg, 0.25 bit/pixel
Аудио: 48 kHz, MPEG Layer 3, 2 ch, ~128.00 kbps avg


00:59:05

_________________
You'll never, ever walk alone.


Последний раз редактировалось: sabas (2011-08-28 14:23), всего редактировалось 1 раз
Profile PM

zhean


Стаж: 7 лет

Сообщений: 4667

Откуда: Н.Новгород

Россия

Торрент-статистика

post 28-Авг-2011 14:18 (спустя 30 минут)

Quote


скоро будет готов полный релиз всех боев вечера
Profile PM

RT_L2L


Стаж: 6 лет 9 месяцев

Сообщений: 47

Россия

Торрент-статистика

post 28-Авг-2011 19:58 (спустя 5 часов)

Quote


Спасибо )
Profile PM
Ответить на тему