Ivan Calderon vs. Giovani Segura 2 / Иван Кальдерон vs. Джованни Сегура 2 / Integrated Sports PPV [02.04.2011, HD, 720p, EN, AVC, HDTV]

Ответить на тему

Автор Сообщение

Agbeko


Стаж: 6 лет 10 месяцев

Сообщений: 41

Откуда: Украина

Украина

Торрент-статистика

post 15-Апр-2011 21:12

Quote


ИВАН КАЛЬДЕРОН (34-1-1, 6 КО) - ДЖОВАННИ СЕГУРА (26-1-1, 22 КО)

Вид спорта: Бокс
Участники: боксеры
Дата проведения: 02.04.2011, Мехикали, Мексика
Комментарий: профессиональный
Язык комментариев: английский
Описание: Великолепный пуэрториканский технарь Иван Кальдерон сколько мог удивлял мировое боксерское сообщество, доказывая, что не одной ударной мощью может жить представитель легчайших дивизионов. Но в августе прошлого года пришел и его черед столкнуться с жестокой действительностью, которая физическое превосходство ставит выше редкого мастерства. Здоровенный Джованни Сегура сначала просто не замечал ударов Ивана, пропуская их пачками, а потом тупо перебил ветерана, который, на свою беду, зачем-то принялся играть по правилам соперника и повелся на рубку. Объединив титулы, Сегура засобирался в следующую категорию, но внял просьбе Кальдерона о матче-реванше. На этот раз Иван знает, что обмениваться с Джованни ударами – смерти подобно, и изберет более привычную для себя манеру второго номера, предельно нагрузив ноги передвижениями по рингу
  • Автор рипа: mt102879
  • Качество: HDTV
  • Формат: mkv
  • Видео кодек: AVC
  • Аудио кодек: AC-3
  • Видео: 3 893 Kbps, Width : 960 pixels, Height : 720 pixels, 29.970 fps
  • Аудио: 384 Kbps, 6 channels, 48.0 KHz
Video
ID : 1
Format : AVC
Format/Info : Advanced Video Codec
Format profile : High@L4.1
Format settings, CABAC : Yes
Format settings, ReFrames : 5 frames
Muxing mode : Container profile=Unknown@4.1
Codec ID : V_MPEG4/ISO/AVC
Duration : 35mn 46s
Bit rate : 3 893 Kbps
Nominal bit rate : 3 981 Kbps
Width : 960 pixels
Height : 720 pixels
Display aspect ratio : 4:3
Frame rate : 29.970 fps
Resolution : 8 bits
Colorimetry : 4:2:0
Scan type : Progressive
Bits/(Pixel*Frame) : 0.188
Stream size : 996 MiB (89%)
Writing library : x264 core 112 r1867 22bfd31
Encoding settings : cabac=1 / ref=5 / deblock=1:0:0 / analyse=0x3:0x133 / me=umh / subme=7 / psy=1 / psy_rd=1.00:0.00 / mixed_ref=1 / me_range=16 / chroma_me=1 / trellis=1 / 8x8dct=1 / cqm=0 / deadzone=21,11 / fast_pskip=1 / chroma_qp_offset=-2 / threads=3 / sliced_threads=0 / nr=0 / decimate=1 / interlaced=0 / constrained_intra=0 / bframes=3 / b_pyramid=0 / b_adapt=1 / b_bias=0 / direct=1 / weightb=1 / open_gop=0 / weightp=2 / keyint=300 / keyint_min=30 / scenecut=40 / intra_refresh=0 / rc_lookahead=40 / rc=2pass / mbtree=1 / bitrate=3981 / ratetol=1.0 / qcomp=0.60 / qpmin=0 / qpmax=51 / qpstep=4 / cplxblur=20.0 / qblur=0.5 / vbv_maxrate=25000 / vbv_bufsize=25000 / nal_hrd=vbr / ip_ratio=1.40 / aq=1:1.00

Audio
ID : 2
Format : AC-3
Format/Info : Audio Coding 3
Codec ID : A_AC3
Duration : 35mn 48s
Bit rate mode : Constant
Bit rate : 384 Kbps
Channel(s) : 6 channels
Channel positions : Front: L C R, Surround: L R, LFE
Sampling rate : 48.0 KHz
Stream size : 98.3 MiB (9%)

35 мин. 46 сек.


Последний раз редактировалось: Agbeko (2011-05-03 13:40), всего редактировалось 3 раз(а)
Profile PM

post 16-Апр-2011 10:08 (спустя 12 часов)


Топик был перенесен из форума <b><a class=\"gen\" href=\"viewforum.php?f=30\">Релизы пользователей</a></b> в форум <b><a class=\"gen\" href=\"viewforum.php?f=98\">Бокс</a></b><br /><br /><a class=\"gen\" href=\"profile.php?mode=viewprofile&u=7088\">Анри А.</a>
 
Ответить на тему