Чемпионат Испании 2015-16 / Segunda División B / Group III / 13-й тур / Вильярреал II - Валенсия Месталья / Villarreal TV [14.11.2015., SD, 720p, H264, ES, WEB]

Чемпионат Испании 2015-16 / Segunda División B / Group III / 13-й тур / Вильярреал II - Валенсия Месталья / Villarreal TV [14.11.2015., SD, 720p, H264, ES, WEB]

Ответить на тему

Автор Сообщение

Chameleon


Стаж: 7 лет 8 месяцев

Сообщений: 4123

Откуда: Tyumen

Россия

Торрент-статистика

post 17-Ноя-2015 20:48

Quote




Страна: Испания.
Турнир: Чемпионат Испании 2015-16. Segunda División B. Group III. 13-й тур.
Участники матча: Вильяреал II - Валенсия Месталья
Дата матча: 14.11.2015
Место проведения: Ciudad Deportiva Del Villarreal (Villarreal)
Телеканал: Villarreal TV
Язык комментариев:
Продолжительность: 02:25:42
Формат видео: MP4
Видео кодек, разрешение, ...: H264, 1280x720, 1 759 kbps, 25 fps
Аудио кодек, ...: AAC, 192 kbps, 2 ch, 44.1 kHz
Format : MPEG-4
Format profile : Base Media / Version 2
Codec ID : mp42
File size : 2.19 GiB
Duration : 2h 25mn
Overall bit rate mode : Variable
Overall bit rate : 2 153 Kbps
Encoded date : UTC 2015-11-16 17:30:24
Tagged date : UTC 2015-11-16 17:30:24
gsst : 0
gstd : 8742126
gssd : B4A7DDA24
gshh : r4---sn-4g57kuel.googlevideo.com

Video
ID : 1
Format : AVC
Format/Info : Advanced Video Codec
Format profile : High@L3.1
Format settings, CABAC : Yes
Format settings, ReFrames : 1 frame
Format settings, GOP : M=1, N=60
Codec ID : avc1
Codec ID/Info : Advanced Video Coding
Duration : 2h 25mn
Bit rate : 1 958 Kbps
Maximum bit rate : 6 508 Kbps
Width : 1 280 pixels
Height : 720 pixels
Display aspect ratio : 16:9
Frame rate mode : Constant
Frame rate : 25.000 fps
Color space : YUV
Chroma subsampling : 4:2:0
Bit depth : 8 bits
Scan type : Progressive
Bits/(Pixel*Frame) : 0.085
Stream size : 1.99 GiB (91%)
Tagged date : UTC 2015-11-16 17:35:08

Audio
ID : 2
Format : AAC
Format/Info : Advanced Audio Codec
Format profile : LC
Codec ID : 40
Duration : 2h 25mn
Bit rate mode : Variable
Bit rate : 192 Kbps
Maximum bit rate : 202 Kbps
Channel(s) : 2 channels
Channel positions : Front: L R
Sampling rate : 44.1 KHz
Compression mode : Lossy
Stream size : 200 MiB (9%)
Title : IsoMedia File Produced by Google, 5-11-2011
Encoded date : UTC 2015-11-16 17:33:13
Tagged date : UTC 2015-11-16 17:35:08

4 - 2

Скриншоты:

_________________
Продам все матчи чемпионата Австралии, Ирана, Катара, Коста-Рики, Венесуэлы, Китая, Южной Кореи. Матчи Бразильских штатов.
Продам матчи. Подробности в ЛС.
PayPal -> chameleon13@ro.ru
Skrill -> chameleon13@ro.ru
Yandex -> 410015480601949


Последний раз редактировалось: Chameleon (2015-11-17 21:31), всего редактировалось 1 раз
Profile PM

triz


Стаж: 4 года 3 месяца

Сообщений: 25

Торрент-статистика

post 17-Ноя-2015 20:52 (спустя 4 минуты)

Quote


и кому то это нужно?
Profile PM

Chameleon


Стаж: 7 лет 8 месяцев

Сообщений: 4123

Откуда: Tyumen

Россия

Торрент-статистика

post 17-Ноя-2015 21:38 (спустя 45 минут)

Quote


triz
Интересный футбол не заканчивается на матчах Реала, Барселоны и т.д. И раз качают то видимо нужно.

_________________
Продам все матчи чемпионата Австралии, Ирана, Катара, Коста-Рики, Венесуэлы, Китая, Южной Кореи. Матчи Бразильских штатов.
Продам матчи. Подробности в ЛС.
PayPal -> chameleon13@ro.ru
Skrill -> chameleon13@ro.ru
Yandex -> 410015480601949
Profile PM

wadim36


Стаж: 6 лет 5 месяцев

Сообщений: 1321

Откуда: Гродно

Белоруссия

Торрент-статистика

post 17-Ноя-2015 23:12 (спустя 1 час 34 минуты)

Quote


Спасибо за релизы, побольше бы сегунды, было бы супер!

_________________
Profile PM

post 26-Июн-2017 14:58 (спустя 1 год 7 месяцев)


Топик был перенесен из форума Segunda, Segunda B 2017/18 в форум Матчи прошлых лет

fuххer666
 
Ответить на тему