Чемпионат Италии 2013-14 / 16-й тур / Милан - Рома / SKY Sport HD [07.11.2015., HD, 1080i, H264, EN, HDTV]

Ответить на тему

Автор Сообщение

Chameleon


Стаж: 9 лет

Сообщений: 4123

Откуда: Tyumen

Россия

Торрент-статистика

post 09-Ноя-2015 17:11

Quote




Страна: Италия.
Турнир: Чемпионат Италии 2013-14. 16-й тур.
Участники матча: Милан - Рома
Дата матча: 16.12.2013
Место проведения: Сан Сиро
Телеканал: SKY Sport HD
Язык комментариев: Итальянский
Продолжительность: 01:51:52
Формат видео: TS
Видео кодек, разрешение, ...: H264, 1920x1080, 7 600 kbps, 30 fps
Аудио кодек, ...: AC3, 384 kbps, 2 ch, 48 kHz
Format : MPEG-TS
File size : 3.45 GiB
Duration : 54mn 41s
Overall bit rate mode : Variable
Overall bit rate : 9 024 Kbps

Video
ID : 168 (0xA8)
Menu ID : 11023 (0x2B0F)
Format : AVC
Format/Info : Advanced Video Codec
Format profile : High@L4
Format settings, CABAC : Yes
Format settings, ReFrames : 3 frames
Codec ID : 27
Duration : 54mn 41s
Bit rate : 7 608 Kbps
Width : 1 920 pixels
Height : 1 080 pixels
Display aspect ratio : 16:9
Frame rate : 25.000 fps
Standard : PAL
Color space : YUV
Chroma subsampling : 4:2:0
Bit depth : 8 bits
Scan type : Interlaced
Scan order : Top Field First
Bits/(Pixel*Frame) : 0.147
Stream size : 2.91 GiB (84%)
Color range : Limited
Color primaries : BT.709
Transfer characteristics : BT.709
Matrix coefficients : BT.709

Audio #1
ID : 444 (0x1BC)
Menu ID : 11023 (0x2B0F)
Format : AC-3
Format/Info : Audio Coding 3
Mode extension : CM (complete main)
Format settings, Endianness : Big
Codec ID : 6
Duration : 54mn 41s
Bit rate mode : Constant
Bit rate : 384 Kbps
Channel(s) : 2 channels
Channel positions : Front: L R
Sampling rate : 48.0 KHz
Compression mode : Lossy
Delay relative to video : 18ms
Stream size : 150 MiB (4%)
Language : std
Language, more info : Clean effects

Audio #2
ID : 445 (0x1BD)
Menu ID : 11023 (0x2B0F)
Format : AC-3
Format/Info : Audio Coding 3
Mode extension : CM (complete main)
Format settings, Endianness : Big
Codec ID : 6
Duration : 54mn 41s
Bit rate mode : Constant
Bit rate : 384 Kbps
Channel(s) : 2 channels
Channel positions : Front: L R
Sampling rate : 48.0 KHz
Compression mode : Lossy
Delay relative to video : 154ms
Stream size : 150 MiB (4%)
Language : std
Language, more info : Clean effects

Audio #3
ID : 462 (0x1CE)
Menu ID : 11023 (0x2B0F)
Format : MPEG Audio
Format version : Version 1
Format profile : Layer 2
Codec ID : 4
Duration : 54mn 41s
Bit rate mode : Constant
Bit rate : 192 Kbps
Channel(s) : 2 channels
Sampling rate : 48.0 KHz
Compression mode : Lossy
Delay relative to video : 124ms
Stream size : 75.1 MiB (2%)
Language : std
Language, more info : Clean effects

2 - 2

Скриншоты:

_________________
Продам все матчи чемпионата Австралии, Ирана, Катара, Коста-Рики, Венесуэлы, Китая, Южной Кореи. Матчи Бразильских штатов.
Продам матчи. Подробности в ЛС.
PayPal -> chameleon13@ro.ru
Skrill -> chameleon13@ro.ru
Yandex -> 410015480601949
Profile PM
Ответить на тему