Все матчи Милана в HD 720p в Серии А сезона 2010-11 | Sky Sport/Calcio HD, JSC Sports HD [2010/2011, HD, 720p, ITA/RU/ENG, HDTVRip]

Страницы:   Пред.  1, 2, 3  След.

Ответить на тему

Автор Сообщение

Gorlum


Стаж: 8 лет 8 месяцев

Сообщений: 1881

Россия

Торрент-статистика

post 09-Фев-2011 09:26

Quote


Обновил торрент-файл
Добавил 24 Тур. Дженоа - Милан. 08.02.2011
General
Complete name : K:\Футбол\Милан\Сезон 2010 - 2011\Милан_Сезон 2010 - 2011_720р\2 Круг_Милан_Сезон 2010 - 2011\(24 Tur) Genoa-Milan\Genoa-Milan.1st.mkv
Format : Matroska
File size : 2.22 GiB
Duration : 1h 12mn
Overall bit rate : 4 404 Kbps
Encoded date : UTC 2011-02-08 13:38:56
Writing application : mkvmerge v4.0.0 ('The Stars were mine') сборка от Jun 6 2010 16:18:42
Writing library : libebml v1.0.0 + libmatroska v1.0.0

Video
ID : 1
Format : AVC
Format/Info : Advanced Video Codec
Format profile : High@L3.1
Format settings, CABAC : Yes
Format settings, ReFrames : 4 frames
Codec ID : V_MPEG4/ISO/AVC
Duration : 1h 12mn
Bit rate : 4 000 Kbps
Width : 1 280 pixels
Height : 720 pixels
Display aspect ratio : 16:9
Frame rate : 25.000 fps
Color space : YUV
Chroma subsampling : 4:2:0
Bit depth : 8 bits
Scan type : Progressive
Bits/(Pixel*Frame) : 0.174
Stream size : 2.08 GiB (94%)
Writing library : x264 core 92 r1510 33d382a
Encoding settings : cabac=1 / ref=3 / deblock=1:0:0 / analyse=0x3:0x113 / me=hex / subme=7 / psy=1 / psy_rd=1.00:0.00 / mixed_ref=1 / me_range=16 / chroma_me=1 / trellis=1 / 8x8dct=1 / cqm=0 / deadzone=21,11 / fast_pskip=1 / chroma_qp_offset=-2 / threads=3 / sliced_threads=0 / nr=0 / decimate=1 / interlaced=0 / constrained_intra=0 / bframes=3 / b_pyramid=2 / b_adapt=1 / b_bias=0 / direct=1 / wpredb=1 / wpredp=2 / keyint=250 / keyint_min=25 / scenecut=40 / intra_refresh=0 / rc_lookahead=40 / rc=abr / mbtree=1 / bitrate=4000 / ratetol=1.0 / qcomp=0.60 / qpmin=10 / qpmax=51 / qpstep=4 / ip_ratio=1.40 / aq=1:1.00

Audio
ID : 2
Format : AC-3
Format/Info : Audio Coding 3
Mode extension : CM (complete main)
Codec ID : A_AC3
Duration : 1h 12mn
Bit rate mode : Constant
Bit rate : 192 Kbps
Channel(s) : 2 channels
Channel positions : Front: L R
Sampling rate : 48.0 KHz
Bit depth : 16 bits
Video delay : 2s 0ms
Stream size : 99.2 MiB (4%)

_________________
Profile PM

Gorlum


Стаж: 8 лет 8 месяцев

Сообщений: 1881

Россия

Торрент-статистика

post 14-Фев-2011 19:22 (спустя 5 дней)

Quote


Обновил торрент-файл
Добавил 25 Тур. Милан - Парма. 14.02.2011
Format : Matroska
File size : 1.45 GiB
Duration : 47mn 12s
Overall bit rate : 4 394 Kbps
Encoded date : UTC 2011-02-14 12:59:06
Writing application : mkvmerge v3.3.0 ('Language') built on Mar 24 2010 14:59:24
Writing library : libebml v0.8.0 + libmatroska v0.9.0

Video
ID : 1
Format : AVC
Format/Info : Advanced Video Codec
Format profile : High@L3.1
Format settings, CABAC : Yes
Format settings, ReFrames : 4 frames
Codec ID : V_MPEG4/ISO/AVC
Duration : 47mn 12s
Bit rate : 4 000 Kbps
Width : 1 280 pixels
Height : 720 pixels
Display aspect ratio : 16:9
Frame rate : 25.000 fps
Color space : YUV
Chroma subsampling : 4:2:0
Bit depth : 8 bits
Scan type : Progressive
Bits/(Pixel*Frame) : 0.174
Stream size : 1.36 GiB (94%)
Writing library : x264 core 92 r1510 33d382a
Encoding settings : cabac=1 / ref=3 / deblock=1:0:0 / analyse=0x3:0x113 / me=hex / subme=7 / psy=1 / psy_rd=1.00:0.00 / mixed_ref=1 / me_range=16 / chroma_me=1 / trellis=1 / 8x8dct=1 / cqm=0 / deadzone=21,11 / fast_pskip=1 / chroma_qp_offset=-2 / threads=3 / sliced_threads=0 / nr=0 / decimate=1 / interlaced=0 / constrained_intra=0 / bframes=3 / b_pyramid=2 / b_adapt=1 / b_bias=0 / direct=1 / wpredb=1 / wpredp=2 / keyint=250 / keyint_min=25 / scenecut=40 / intra_refresh=0 / rc_lookahead=40 / rc=abr / mbtree=1 / bitrate=4000 / ratetol=1.0 / qcomp=0.60 / qpmin=10 / qpmax=51 / qpstep=4 / ip_ratio=1.40 / aq=1:1.00

Audio
ID : 2
Format : AC-3
Format/Info : Audio Coding 3
Mode extension : CM (complete main)
Codec ID : A_AC3
Duration : 47mn 12s
Bit rate mode : Constant
Bit rate : 192 Kbps
Channel(s) : 2 channels
Channel positions : Front: L R
Sampling rate : 48.0 KHz
Bit depth : 16 bits
Stream size : 64.8 MiB (4%)

_________________
Profile PM

Gorlum


Стаж: 8 лет 8 месяцев

Сообщений: 1881

Россия

Торрент-статистика

post 26-Фев-2011 13:03 (спустя 11 дней)

Quote


Обновил торрент-файл
Добавил 26 Тур. Кьево - Милан. 26.02.201
1

_________________
Profile PM

parviz2010


Стаж: 8 лет 8 месяцев

Сообщений: 96

Таджикистан

Торрент-статистика

post 26-Фев-2011 23:07 (спустя 10 часов)

Quote


что уже сняли-золото с раздачи?
Profile PM

Milanchik


Стаж: 8 лет 6 месяцев

Сообщений: 8

Откуда: Сміла

Украина

Торрент-статистика

post 28-Фев-2011 23:56 (спустя 2 дня)

Quote


Может ктото роздавать быстрее чем 300кб/с
Profile PM

whiteermine


Стаж: 8 лет 8 месяцев

Сообщений: 155

Откуда: Москва

Россия

Торрент-статистика

post 01-Мар-2011 21:54 (спустя 21 час)

Quote


А не могли бы вы к матчу с Наполи приделать и русскую дорожку? Буду очень благодарен.
Profile PM

Gorlum


Стаж: 8 лет 8 месяцев

Сообщений: 1881

Россия

Торрент-статистика

post 02-Мар-2011 19:48 (спустя 21 час)

Quote


Обновил торрент-файл
Добавил 27 Тур. Милан - Наполи. 02.03.2011

_________________
Profile PM

whiteermine


Стаж: 8 лет 8 месяцев

Сообщений: 155

Откуда: Москва

Россия

Торрент-статистика

post 02-Мар-2011 20:07 (спустя 18 минут)

Quote


Спасибо вам большое, в том числе и за русскую дорожку.
Profile PM

whiteermine


Стаж: 8 лет 8 месяцев

Сообщений: 155

Откуда: Москва

Россия

Торрент-статистика

post 06-Мар-2011 19:24 (спустя 3 дня)

Quote


А можно ли попросить вас сделать с дуэтом Черданцев - Арустамян?
Profile PM

Gorlum


Стаж: 8 лет 8 месяцев

Сообщений: 1881

Россия

Торрент-статистика

post 06-Мар-2011 21:36 (спустя 2 часа 11 минут)

Quote


Обновил торрент-файл
Добавил 28 Тур. Ювентус - Милан. 06.03.2011


Frame rate : 59.940 fps
Format : Matroska
File size : 2.15 GiB
Duration : 50mn 8s
Overall bit rate : 6 126 Kbps
Encoded date : UTC 2011-03-06 16:10:29
Writing application : mkvmerge v3.3.0 ('Language') built on Mar 24 2010 14:59:24
Writing library : libebml v0.8.0 + libmatroska v0.9.0

Video
ID : 1
Format : AVC
Format/Info : Advanced Video Codec
Format profile : Main@L4.0
Format settings, CABAC : Yes
Format settings, ReFrames : 4 frames
Format settings, GOP : M=4, N=32
Codec ID : V_MPEG4/ISO/AVC
Duration : 50mn 8s
Bit rate mode : Variable
Bit rate : 5 876 Kbps
Maximum bit rate : 20.0 Mbps
Width : 1 280 pixels
Height : 720 pixels
Display aspect ratio : 16:9
Frame rate : 59.940 fps
Color space : YUV
Chroma subsampling : 4:2:0
Bit depth : 8 bits
Scan type : Progressive
Bits/(Pixel*Frame) : 0.106
Stream size : 2.06 GiB (96%)
Color primaries : BT.709-5, BT.1361, IEC 61966-2-4, SMPTE RP177
Transfer characteristics : BT.709-5, BT.1361
Matrix coefficients : BT.709-5, BT.1361, IEC 61966-2-4 709, SMPTE RP177

Audio
ID : 2
Format : MPEG Audio
Format version : Version 1
Format profile : Layer 3
Codec ID : A_MPEG/L3
Codec ID/Hint : MP3
Duration : 49mn 57s
Bit rate mode : Constant
Bit rate : 128 Kbps
Channel(s) : 2 channels
Sampling rate : 48.0 KHz
Stream size : 45.7 MiB (2%)
Writing library : LAME3.98r
Encoding settings : -m s -V 4 -q 2 -lowpass 17 -b 128

_________________
Profile PM

whiteermine


Стаж: 8 лет 8 месяцев

Сообщений: 155

Откуда: Москва

Россия

Торрент-статистика

post 06-Мар-2011 22:48 (спустя 1 час 12 минут)

Quote


Спасибо!
Profile PM

Misha20


Стаж: 8 лет 6 месяцев

Сообщений: 134

Откуда: Chelyabinsk

Россия

Торрент-статистика

post 06-Мар-2011 22:53 (спустя 4 минуты)

Quote


Спасибо большое!!!))
Profile PM

Chester-Vic


Стаж: 8 лет 6 месяцев

Сообщений: 14

Кокосовые острова

Торрент-статистика

post 08-Мар-2011 19:57 (спустя 1 день 21 час)

Quote


Матч Юве - Милан, скрин состава Наполи ad

_________________
Profile PM

Gorlum


Стаж: 8 лет 8 месяцев

Сообщений: 1881

Россия

Торрент-статистика

post 15-Мар-2011 20:00 (спустя 7 дней)

Quote


Обновил торрент-файл
Добавил 29 Тур. Милан - Бари. 15.03.2011

_________________
Profile PM

Pato_Tima


Стаж: 8 лет 4 месяца

Сообщений: 1

Откуда: Алматы

Казахстан

Торрент-статистика

post 19-Мар-2011 20:18 (спустя 4 дня)

Quote


Пацаны я новенький подскажите как скачивать, и что нужно делать со скачанным, нужно ли раздовать? Хотелось бы скачать Миланское дерби!

_________________
Milan per sempre nei mio cuore!!!
Forza Milan! Forza Rossoneri!
Profile PM

Gorlum


Стаж: 8 лет 8 месяцев

Сообщений: 1881

Россия

Торрент-статистика

post 24-Мар-2011 19:44 (спустя 4 дня)

Quote


Обновил торрент-файл
Добавил 30 Тур. Палермо - Милан. 24.03.2011

_________________
Profile PM

Gorlum


Стаж: 8 лет 8 месяцев

Сообщений: 1881

Россия

Торрент-статистика

post 03-Апр-2011 15:25 (спустя 9 дней)

Quote


Обновил торрент-файл
Добавил 31 Тур. Милан - Интер. 03.04.2011


присутствует отдельным файлом видео до матча

_________________
Profile PM

Interisto


Стаж: 8 лет 8 месяцев

Сообщений: 803

Откуда: Симферополь

Торрент-статистика

post 03-Апр-2011 15:56 (спустя 31 минута)

Quote


Gorlum
Спасибо.

Мне интересно, судья был купленный или перепуганный?
Profile PM

Gorlum


Стаж: 8 лет 8 месяцев

Сообщений: 1881

Россия

Торрент-статистика

post 03-Апр-2011 16:06 (спустя 9 минут)

Quote


Нормальный, я ничего такого не заметил ab

_________________
Profile PM

Interisto


Стаж: 8 лет 8 месяцев

Сообщений: 803

Откуда: Симферополь

Торрент-статистика

post 03-Апр-2011 16:16 (спустя 10 минут)

Quote


Ну разумеется. На моей памяти: левое удаление Киву - симуляция Пато , гол его же с офсайда и левый пенальти. Последнее ещё можно списать на руку Майкона в первом тайме, но зачем так убивать интригу заранее... Привет в Болонью. Скотина, конченная. ao
Profile PM

Gorlum


Стаж: 8 лет 8 месяцев

Сообщений: 1881

Россия

Торрент-статистика

post 03-Апр-2011 16:27 (спустя 10 минут)

Quote


Повторю, ничего предвзятого не увидел в матче. Спорить, уверен, бесполезно. Ты говоришь, что судья виноват. Болелы др. команд - Берлускони. Я считаю, что мои были сильнее.

Одно могу пожелать Интеру, как и любой др. команде из Италии, играть и выигрывать что-нить в Европе. За это я поболею обязательно.

_________________
Profile PM

whiteermine


Стаж: 8 лет 8 месяцев

Сообщений: 155

Откуда: Москва

Россия

Торрент-статистика

post 04-Апр-2011 09:10 (спустя 16 часов)

Quote


Gorlum
Спасибо большое!
Profile PM

Gorlum


Стаж: 8 лет 8 месяцев

Сообщений: 1881

Россия

Торрент-статистика

post 12-Апр-2011 19:19 (спустя 8 дней)

Quote


Обновил торрент-файл
Добавил 32 Тур. Фиорентина - Милан. 12.04.2011

_________________
Profile PM

whiteermine


Стаж: 8 лет 8 месяцев

Сообщений: 155

Откуда: Москва

Россия

Торрент-статистика

post 12-Апр-2011 20:04 (спустя 45 минут)

Quote


Gorlum писал(а):

Обновил торрент-файл
Добавил 32 Тур. Фиорентина - Милан. 12.04.2011
Спасибо! А как так получилось что таймы с разной озвучкой?
Profile PM

Gorlum


Стаж: 8 лет 8 месяцев

Сообщений: 1881

Россия

Торрент-статистика

post 12-Апр-2011 20:16 (спустя 11 минут)

Quote


whiteermine писал(а):

Спасибо! А как так получилось что таймы с разной озвучкой?
И не спрашивай, лучше бы итал-ю оставил, там блин зажигал комментатор (СУПЕР !!!). А потом случайно удалил уже все файлы.

_________________
Profile PM

whiteermine


Стаж: 8 лет 8 месяцев

Сообщений: 155

Откуда: Москва

Россия

Торрент-статистика

post 12-Апр-2011 21:22 (спустя 1 час 6 минут)

Quote


Скажите, пожалуйста, а сложен ли итальянский комментарий для понимания? Просто только начинаю учить язык.
Profile PM

Interisto


Стаж: 8 лет 8 месяцев

Сообщений: 803

Откуда: Симферополь

Торрент-статистика

post 12-Апр-2011 21:35 (спустя 12 минут)

Quote


Я бы не назвал итальянский язык вообще сложным, тем более в футболе они, как правило, оперируют стандартным набором фраз, и не парятся, что они повторяются или что каждый матч одно и то же. Это и помогает, по крайне мере, футбольные термины освоить довольно быстро. Простая, понятная и в то же время чувственная, эмоциональная подача. Вообще мне не нравятся клубные коментаторы, которые иногда просто головой об пульт лупятся, когда их команда забивает. А вот Скаевские обычные - то, что надо.
Profile PM

whiteermine


Стаж: 8 лет 8 месяцев

Сообщений: 155

Откуда: Москва

Россия

Торрент-статистика

post 12-Апр-2011 21:56 (спустя 21 минута)

Quote


Понятно. А какие-нибудь любимые комментаторы у вас есть?
Profile PM

Gorlum


Стаж: 8 лет 8 месяцев

Сообщений: 1881

Россия

Торрент-статистика

post 17-Апр-2011 23:51 (спустя 5 дней)

Quote


Обновил торрент-файл
Добавил 33 Тур. Милан - Сампдория. 17.04.2011

_________________
Profile PM

Gorlum


Стаж: 8 лет 8 месяцев

Сообщений: 1881

Россия

Торрент-статистика

post 26-Апр-2011 21:06 (спустя 8 дней)

Quote


Обновил торрент-файл
Добавил 34 Тур. Брешия - Милан. 26.04.2011

_________________
Profile PM
Ответить на тему