Indian Wells 2018 / 3 й круг / Роджер Федерер - Филип Краинович / Roger Federer - Filip Krajinovic / ESPN HD [12.03.2018, HD, 720p, 50 fps, ENG, IPTV]

Ответить на тему

Автор Сообщение

oleg_1954


Стаж: 7 лет 9 месяцев

Сообщений: 8842

Откуда: Волгоград

Россия

Торрент-статистика

post 13-Мар-2018 18:55

Quote


Roger Federer - Filip Krajinovic. Indian Wells 2018. 3rd Round
Роджер Федерер - Филип Краинович. Индиан Уэллс 2018. 3 й круг

Год выпуска: 12.03.2018 23:50 МСК
Вид спорта: Теннис
Участники: Роджер Федерер - Филип Краинович. Индиан Уэллс 2018. 3 й круг
Комментарий: Профессиональный Английский
Качество: IPTVRip
Формат: MKV
Видео кодек: H.264
Аудио кодек: MP2
Видео: MPEG4 Video H.264 1280x720 50 fps Bit rate 7544 Aspect Ratio 16:9
Аудио: Английский MP2 48000 Hz stereo 256 Kbps
Спасибо leomessi00 за предоставленный исходный файл
01:01:52
General
Format : Matroska
Format version : Version 4 / Version 2
File size : 3.44 GiB
Duration : 1h 1mn
Overall bit rate : 7 958 Kbps
Movie name : R.Federer - F.Krajinovic.Indian Wells 2018.R3
Encoded date : UTC 2010-02-22 21:41:31
Writing application : mkvmerge v5.9.0 ('On The Loose') built on Dec 9 2012 15:37:01
Writing library : libebml v1.3.0 + libmatroska v1.4.0

Video
ID : 1
Format : AVC
Format/Info : Advanced Video Codec
Format profile : High@L4.0
Format settings, CABAC : Yes
Format settings, ReFrames : 4 frames
Codec ID : V_MPEG4/ISO/AVC
Duration : 1h 1mn
Bit rate : 7 544 Kbps
Width : 1 280 pixels
Height : 720 pixels
Display aspect ratio : 16:9
Frame rate mode : Constant
Frame rate : 50.000 fps
Color space : YUV
Chroma subsampling : 4:2:0
Bit depth : 8 bits
Scan type : Progressive
Bits/(Pixel*Frame) : 0.164
Stream size : 3.26 GiB (95%)
Language : English
Default : Yes
Forced : No
Color primaries : BT.709
Transfer characteristics : BT.709
Matrix coefficients : BT.709

Audio
ID : 2
Format : MPEG Audio
Format version : Version 1
Format profile : Layer 2
Codec ID : A_MPEG/L2
Codec ID/Hint : MP2
Duration : 1h 1mn
Bit rate mode : Constant
Bit rate : 256 Kbps
Channel count : 2 channels
Sampling rate : 48.0 KHz
Compression mode : Lossy
Delay relative to video : -90ms
Stream size : 113 MiB (3%)
Language : English
Default : Yes
Forced : No

_________________
Donate: Yandexmoney 410011231407235
Profile PM

shrikha


Стаж: 2 года 10 месяцев

Сообщений: 25

Торрент-статистика

post 15-Мар-2018 09:48 (спустя 1 день 14 часов)

Quote


oleg_1954
thank you! please, please upload the Chardy match with English commentary, too
Profile PM
Ответить на тему