Bastad 2009 / Финал / Робин Содерлинг - Хуан Монако / Robin Soderling - Juan Monaco / НТВ+ [19.07.2009, MPEG2, 576i, 25 fps, RUS, IPTV]

Ответить на тему

Автор Сообщение

oleg_1954


Стаж: 7 лет 11 месяцев

Сообщений: 8913

Откуда: Волгоград

Россия

Торрент-статистика

post 08-Ноя-2018 17:18

Quote


Robin Soderling - Juan Monaco. Bastad 2009. Final
Робин Содерлинг - Хуан Монако. Бастад 2009. Финал

Год выпуска: 19.07.2009
Вид спорта: Теннис
Участники: Робин Содерлинг - Хуан Монако. Бастад 2009. Финал
Комментарий: Профессиональный Русский (А.Шмурнов)
Качество: IPTVRip
Формат: MKV
Видео кодек: MPEG2
Аудио кодек: MP2
Видео: MPEG2 Video 720x576 25 fps Bit rate 3180 Kbps Aspect Ratio 16:9
Аудио: Русский MP2 48000 Hz stereo 192 Kbps
Спасибо leomessi00 за предоставленный исходный файл
02:02:50
General
Format : Matroska
Format version : Version 4 / Version 2
File size : 2.95 GiB
Duration : 2 h 2 min
Overall bit rate mode : Variable
Overall bit rate : 3 441 kb/s
Movie name : R.Soderling - J.Monaco.Bastad 2009.Final
Encoded date : UTC 2010-02-22 21:41:31
Writing application : mkvmerge v5.9.0 ('On The Loose') built on Dec 9 2012 15:37:01
Writing library : libebml v1.3.0 + libmatroska v1.4.0

Video
ID : 1
Format : MPEG Video
Format version : Version 2
Format profile : Main@Main
Format settings : CustomMatrix
Format settings, BVOP : No
Format settings, Matrix : Custom
Format settings, picture struc : Frame
Codec ID : V_MPEG2
Codec ID/Info : MPEG 1 or 2 Video
Duration : 2 h 2 min
Bit rate mode : Variable
Bit rate : 3 180 kb/s
Maximum bit rate : 15.0 Mb/s
Width : 720 pixels
Height : 576 pixels
Display aspect ratio : 16:9
Frame rate mode : Constant
Frame rate : 25.000 FPS
Standard : PAL
Color space : YUV
Chroma subsampling : 4:2:0
Bit depth : 8 bits
Scan type : Interlaced
Scan order : Top Field First
Compression mode : Lossy
Bits/(Pixel*Frame) : 0.307
Time code of first frame : 00:00:00:00
Time code source : Group of pictures header
Stream size : 2.73 GiB (92%)
Language : English
Default : Yes
Forced : No

Audio
ID : 2
Format : MPEG Audio
Format version : Version 1
Format profile : Layer 2
Codec ID : A_MPEG/L2
Codec ID/Hint : MP2
Duration : 2 h 2 min
Bit rate mode : Constant
Bit rate : 192 kb/s
Channel(s) : 2 channels
Sampling rate : 48.0 kHz
Compression mode : Lossy
Delay relative to video : 1 ms
Stream size : 169 MiB (6%)
Title : А.Шмурнов
Language : Russian
Default : Yes
Forced : No

_________________
Donate: Yandexmoney 410011231407235
Я в отпуске 11.11.2018-20.11.2018
Profile PM
Ответить на тему