[Pack] Все матчи AC MILAN в HD 720p / 50 fps в Лиге Чемпионов сезона 2013-14 / НТВ+, Sky Calcio HD [2013/2014, HD, 50 fps, 720р, RU,ITA,INT, HDTV]

Ответить на тему

Автор Сообщение

Gorlum


Стаж: 7 лет 7 месяцев

Сообщений: 1879

Россия

Торрент-статистика

post 22-Авг-2013 19:30

Quote


Associazione Calcio Milan
Для Всех поклонников итальянского футбола и Милана

ПСВ (Эйндховен) — Милан (Милан)
20 августа 2013, 22:45 | Филипс Стадион | Главный судья Джюнейт Чакир
Лига Чемпионов. Раунд плей-офф - Матч 1


Автор рипа: Gorlum

Язык комментариев: Профессиональный, Русский, Канал: Футбол HD

Качество: HDTVRip, Формат: mkv, Видео кодек: H.264, Аудио кодек: АС3
Видео: 50 fps, 1280 x 720, bitrate~ 2781 ( crf=23 ), Аудио: 128 kbps, 2 ch, 48,0 КГц - Русский, Георгий Черданцев
1 : 1
00:51:22 + 00:47:38
Format : Matroska
Format version : Version 4 / Version 2
File size : 1.17 GiB
Duration : 1h 0mn
Overall bit rate : 2 781 Kbps
Encoded date : UTC 2013-08-22 03:12:47
Writing application : mkvmerge v6.1.0 ('Old Devil') built on Mar 2 2013 14:32:37
Writing library : libebml v1.3.0 + libmatroska v1.4.0

Video
ID : 1
Format : AVC
Format/Info : Advanced Video Codec
Format profile : High@L4.1
Format settings, CABAC : Yes
Format settings, ReFrames : 7 frames
Codec ID : V_MPEG4/ISO/AVC
Duration : 1h 0mn
Width : 1 280 pixels
Height : 720 pixels
Display aspect ratio : 16:9
Frame rate mode : Constant
Frame rate : 50.000 fps
Color space : YUV
Chroma subsampling : 4:2:0
Bit depth : 8 bits
Scan type : Progressive
Writing library : x264 core 130 r2273 b3065e6
Encoding settings : cabac=1 / ref=7 / deblock=1:-1:-1 / analyse=0x3:0x113 / me=hex / subme=7 / psy=1 / psy_rd=1.00:0.00 / mixed_ref=1 / me_range=16 / chroma_me=1 / trellis=2 / 8x8dct=1 / cqm=0 / deadzone=21,11 / fast_pskip=1 / chroma_qp_offset=-2 / threads=3 / lookahead_threads=1 / sliced_threads=0 / nr=0 / decimate=1 / interlaced=0 / bluray_compat=0 / constrained_intra=0 / bframes=3 / b_pyramid=2 / b_adapt=2 / b_bias=0 / direct=1 / weightb=1 / open_gop=0 / weightp=2 / keyint=500 / keyint_min=50 / scenecut=40 / intra_refresh=0 / rc_lookahead=50 / rc=crf / mbtree=1 / crf=23.0 / qcomp=0.60 / qpmin=0 / qpmax=69 / qpstep=4 / vbv_maxrate=62500 / vbv_bufsize=78125 / crf_max=0.0 / nal_hrd=none / ip_ratio=1.40 / aq=1:1.00
Default : Yes
Forced : No

Audio
ID : 2
Format : AAC
Format/Info : Advanced Audio Codec
Format profile : LC
Codec ID : A_AAC
Duration : 1h 0mn
Channel(s) : 2 channels
Channel positions : Front: L R
Sampling rate : 48.0 KHz
Compression mode : Lossy
Title : NTV+ HD ( Georgiy Cherdanzev )
Language : Russian
Default : Yes
Forced : No
Милан (Милан) — ПСВ (Эйндховен)
28 августа 2013, 22:45 | Джузеппе Меацца (Сан-Сиро) | Главный судья Марк Клаттенбург
Лига Чемпионов. Раунд плей-офф - Матч 2


Автор рипа: Gorlum

Язык комментариев: Профессиональный, Русский, Канал: Футбол HD

Качество: HDTVRip, Формат: mkv, Видео кодек: H.264, Аудио кодек: АС3
Видео: 50 fps, 1280 x 720, bitrate~ 2937 ( crf=22 ), Аудио: 128 kbps, 2 ch, 48,0 КГц - Русский, Олег Пирожков
3 : 0
00:51:22 + 00:47:38
Format : Matroska
Format version : Version 4 / Version 2
File size : 1.45 GiB
Duration : 1h 1mn
Overall bit rate : 3 390 Kbps
Encoded date : UTC 2013-08-29 11:39:46
Writing application : mkvmerge v6.1.0 ('Old Devil') built on Mar 2 2013 14:32:37
Writing library : libebml v1.3.0 + libmatroska v1.4.0

Video
ID : 1
Format : AVC
Format/Info : Advanced Video Codec
Format profile : High@L4.1
Format settings, CABAC : Yes
Format settings, ReFrames : 7 frames
Codec ID : V_MPEG4/ISO/AVC
Duration : 1h 1mn
Bit rate : 2 939 Kbps
Width : 1 280 pixels
Height : 720 pixels
Display aspect ratio : 16:9
Frame rate mode : Constant
Frame rate : 50.000 fps
Color space : YUV
Chroma subsampling : 4:2:0
Bit depth : 8 bits
Scan type : Progressive
Bits/(Pixel*Frame) : 0.064
Stream size : 1.26 GiB (87%)
Writing library : x264 core 130 r2273 b3065e6
Encoding settings : cabac=1 / ref=7 / deblock=1:-1:-1 / analyse=0x3:0x113 / me=hex / subme=7 / psy=1 / psy_rd=1.00:0.00 / mixed_ref=1 / me_range=16 / chroma_me=1 / trellis=2 / 8x8dct=1 / cqm=0 / deadzone=21,11 / fast_pskip=1 / chroma_qp_offset=-2 / threads=3 / lookahead_threads=1 / sliced_threads=0 / nr=0 / decimate=1 / interlaced=0 / bluray_compat=0 / constrained_intra=0 / bframes=3 / b_pyramid=2 / b_adapt=2 / b_bias=0 / direct=1 / weightb=1 / open_gop=0 / weightp=2 / keyint=500 / keyint_min=50 / scenecut=40 / intra_refresh=0 / rc_lookahead=50 / rc=crf / mbtree=1 / crf=22.0 / qcomp=0.60 / qpmin=0 / qpmax=69 / qpstep=4 / vbv_maxrate=62500 / vbv_bufsize=78125 / crf_max=0.0 / nal_hrd=none / ip_ratio=1.40 / aq=1:1.00
Default : Yes
Forced : No

Audio
ID : 2
Format : AC-3
Format/Info : Audio Coding 3
Mode extension : CM (complete main)
Format settings, Endianness : Big
Codec ID : A_AC3
Duration : 1h 1mn
Bit rate mode : Constant
Bit rate : 384 Kbps
Channel(s) : 2 channels
Channel positions : Front: L R
Sampling rate : 48.0 KHz
Bit depth : 16 bits
Compression mode : Lossy
Stream size : 169 MiB (11%)
Title : NTV+ HD ( Oleg Pirogkov )
Language : Russian
Default : Yes
Forced : No
Милан (Милан) — Селтик (Глазго)
18 сентября 2013, 22:45 | Джузеппе Меацца (Сан-Сиро) | Главный судья Вольфганг Штарк
Лига Чемпионов. Группа H - Раунд 1


Автор рипа: Gorlum

Язык комментариев: Профессиональный, Русский, Канал: Футбол HD

Качество: HDTVRip, Формат: mkv, Видео кодек: H.264, Аудио кодек: АС3
Видео: 50 fps, 1280 x 720, bitrate~ 2937 ( crf=22 ), Аудио: 128 kbps, 2 ch, 48,0 КГц - Русский, Нобель Арустамян
2 : 0
1h 49mn
Format : Matroska
Format version : Version 4 / Version 2
File size : 2.60 GiB
Duration : 1h 49mn
Overall bit rate : 3 388 Kbps
Encoded date : UTC 2013-09-20 04:36:44
Writing application : mkvmerge v6.1.0 ('Old Devil') built on Mar 2 2013 14:32:37
Writing library : libebml v1.3.0 + libmatroska v1.4.0

Video
ID : 1
Format : AVC
Format/Info : Advanced Video Codec
Format profile : High@L4.1
Format settings, CABAC : Yes
Format settings, ReFrames : 5 frames
Codec ID : V_MPEG4/ISO/AVC
Duration : 1h 49mn
Bit rate : 2 937 Kbps
Width : 1 280 pixels
Height : 720 pixels
Display aspect ratio : 16:9
Frame rate mode : Constant
Frame rate : 50.000 fps
Color space : YUV
Chroma subsampling : 4:2:0
Bit depth : 8 bits
Scan type : Progressive
Bits/(Pixel*Frame) : 0.064
Stream size : 2.25 GiB (87%)
Writing library : x264 core 130 r2273 b3065e6
Encoding settings : cabac=1 / ref=5 / deblock=1:-1:-1 / analyse=0x3:0x113 / me=umh / subme=8 / psy=1 / psy_rd=1.00:0.00 / mixed_ref=1 / me_range=16 / chroma_me=1 / trellis=1 / 8x8dct=1 / cqm=0 / deadzone=21,11 / fast_pskip=1 / chroma_qp_offset=-2 / threads=3 / lookahead_threads=1 / sliced_threads=0 / nr=0 / decimate=1 / interlaced=0 / bluray_compat=0 / constrained_intra=0 / bframes=3 / b_pyramid=2 / b_adapt=2 / b_bias=0 / direct=3 / weightb=1 / open_gop=0 / weightp=2 / keyint=500 / keyint_min=50 / scenecut=40 / intra_refresh=0 / rc_lookahead=50 / rc=crf / mbtree=1 / crf=22.0 / qcomp=0.60 / qpmin=0 / qpmax=69 / qpstep=4 / vbv_maxrate=62500 / vbv_bufsize=78125 / crf_max=0.0 / nal_hrd=none / ip_ratio=1.40 / aq=1:1.00
Default : Yes
Forced : No

Audio
ID : 2
Format : AC-3
Format/Info : Audio Coding 3
Mode extension : CM (complete main)
Format settings, Endianness : Big
Codec ID : A_AC3
Duration : 1h 49mn
Bit rate mode : Constant
Bit rate : 384 Kbps
Channel(s) : 2 channels
Channel positions : Front: L R
Sampling rate : 48.0 KHz
Bit depth : 16 bits
Compression mode : Lossy
Stream size : 302 MiB (11%)
Title : NTV+ HD ( Nobel Arustaman )
Language : Russian
Default : Yes
Forced : No
Аякс (Амстердам) — Милан (Милан)
1 октября 2013, 22:45 | Стадион Амстердам Арена | Главный судья Юнас Эрикссон
Лига Чемпионов. Группа H - Раунд 2


Автор рипа: Gorlum, Исходник: Boss - спасибо

Язык комментариев: Профессиональный, Итальянский, Канал: Sky Calcio HD

Качество: HDTVRip, Формат: mkv, Видео кодек: H.264, Аудио кодек: АС3
Видео: 50 fps, 1280 x 720, bitrate~ 2875 ( crf=23 ), Аудио 1,2: 128 kbps, 2 ch, 48,0 КГц - Итальянский, Sky Calcio, Интершум
1 : 1
52mn 42s + 54mn 27s
Format : Matroska
Format version : Version 4 / Version 2
File size : 1.37 GiB
Duration : 52mn 42s
Overall bit rate : 3 717 Kbps
Encoded date : UTC 2013-10-04 15:38:15
Writing application : mkvmerge v6.3.0 ('You can't stop me!') built on Jun 28 2013 20:09:41
Writing library : libebml v1.3.0 + libmatroska v1.4.0

Video
ID : 1
Format : AVC
Format/Info : Advanced Video Codec
Format profile : High@L4.1
Format settings, CABAC : Yes
Format settings, ReFrames : 5 frames
Codec ID : V_MPEG4/ISO/AVC
Duration : 52mn 42s
Bit rate : 2 875 Kbps
Width : 1 280 pixels
Height : 720 pixels
Display aspect ratio : 16:9
Frame rate mode : Constant
Frame rate : 50.000 fps
Color space : YUV
Chroma subsampling : 4:2:0
Bit depth : 8 bits
Scan type : Progressive
Bits/(Pixel*Frame) : 0.062
Stream size : 1.06 GiB (77%)
Writing library : x264 core 133 r2334 a3ac64b
Encoding settings : cabac=1 / ref=5 / deblock=1:-1:-1 / analyse=0x3:0x113 / me=hex / subme=7 / psy=1 / psy_rd=1.00:0.00 / mixed_ref=1 / me_range=16 / chroma_me=1 / trellis=1 / 8x8dct=1 / cqm=0 / deadzone=21,11 / fast_pskip=1 / chroma_qp_offset=-2 / threads=3 / lookahead_threads=1 / sliced_threads=0 / nr=0 / decimate=1 / interlaced=0 / bluray_compat=0 / constrained_intra=0 / bframes=3 / b_pyramid=2 / b_adapt=2 / b_bias=0 / direct=1 / weightb=1 / open_gop=0 / weightp=2 / keyint=500 / keyint_min=50 / scenecut=40 / intra_refresh=0 / rc_lookahead=50 / rc=crf / mbtree=1 / crf=23.0 / qcomp=0.60 / qpmin=0 / qpmax=69 / qpstep=4 / vbv_maxrate=62500 / vbv_bufsize=78125 / crf_max=0.0 / nal_hrd=none / ip_ratio=1.40 / aq=1:1.00
Default : Yes
Forced : No

Audio #1
ID : 2
Format : AC-3
Format/Info : Audio Coding 3
Mode extension : CM (complete main)
Format settings, Endianness : Big
Codec ID : A_AC3
Duration : 52mn 42s
Bit rate mode : Constant
Bit rate : 384 Kbps
Channel(s) : 6 channels
Channel positions : Front: L C R, Side: L R, LFE
Sampling rate : 48.0 KHz
Bit depth : 16 bits
Compression mode : Lossy
Stream size : 145 MiB (10%)
Title : Sky Calcio HD
Language : Italian
Default : Yes
Forced : No

Audio #2
ID : 3
Format : AC-3
Format/Info : Audio Coding 3
Mode extension : CM (complete main)
Format settings, Endianness : Big
Codec ID : A_AC3
Duration : 52mn 42s
Bit rate mode : Constant
Bit rate : 384 Kbps
Channel(s) : 2 channels
Channel positions : Front: L R
Sampling rate : 48.0 KHz
Bit depth : 16 bits
Compression mode : Lossy
Stream size : 145 MiB (10%)
Title : Stadium
Default : No
Forced : No
Милан (Милан) — Барселона (Барселона)
22 октября 2013, 22:45 | Джузеппе Меацца (Сан-Сиро) | Главный судья Феликс Брих
Лига Чемпионов. Группа H - Раунд 3


Автор рипа: Gorlum

Язык комментариев: Профессиональный, Русский, Канал: Футбол HD

Качество: HDTVRip, Формат: mkv, Видео кодек: H.264, Аудио кодек: АС3
Видео: 50 fps, 1280 x 720, bitrate~ 3338 ( crf=22 ), Аудио: 128 kbps, 2 ch, 48,0 КГц - Русский, Константин Генич
1 : 1
57mn 23s + 52mn 40s
Format : Matroska
Format version : Version 4 / Version 2
File size : 1.44 GiB
Duration : 57mn 23s
Overall bit rate : 3 602 Kbps
Encoded date : UTC 2013-10-23 14:13:12
Writing application : mkvmerge v6.3.0 ('You can't stop me!') built on Jun 28 2013 20:09:41
Writing library : libebml v1.3.0 + libmatroska v1.4.0

Video
ID : 1
Format : AVC
Format/Info : Advanced Video Codec
Format profile : High@L4.1
Format settings, CABAC : Yes
Format settings, ReFrames : 5 frames
Codec ID : V_MPEG4/ISO/AVC
Duration : 57mn 23s
Bit rate : 3 338 Kbps
Width : 1 280 pixels
Height : 720 pixels
Display aspect ratio : 16:9
Frame rate mode : Constant
Frame rate : 50.000 fps
Color space : YUV
Chroma subsampling : 4:2:0
Bit depth : 8 bits
Scan type : Progressive
Bits/(Pixel*Frame) : 0.072
Stream size : 1.34 GiB (93%)
Writing library : x264 core 130 r2273 b3065e6
Encoding settings : cabac=1 / ref=5 / deblock=1:-1:-1 / analyse=0x3:0x113 / me=hex / subme=7 / psy=1 / psy_rd=1.00:0.00 / mixed_ref=1 / me_range=16 / chroma_me=1 / trellis=1 / 8x8dct=1 / cqm=0 / deadzone=21,11 / fast_pskip=1 / chroma_qp_offset=-2 / threads=3 / lookahead_threads=1 / sliced_threads=0 / nr=0 / decimate=1 / interlaced=0 / bluray_compat=0 / constrained_intra=0 / bframes=3 / b_pyramid=2 / b_adapt=2 / b_bias=0 / direct=1 / weightb=1 / open_gop=0 / weightp=2 / keyint=500 / keyint_min=50 / scenecut=40 / intra_refresh=0 / rc_lookahead=50 / rc=crf / mbtree=1 / crf=22.0 / qcomp=0.60 / qpmin=0 / qpmax=69 / qpstep=4 / vbv_maxrate=62500 / vbv_bufsize=78125 / crf_max=0.0 / nal_hrd=none / ip_ratio=1.40 / aq=1:1.00
Default : Yes
Forced : No

Audio
ID : 2
Format : MPEG Audio
Format version : Version 1
Format profile : Layer 2
Codec ID : A_MPEG/L2
Codec ID/Hint : MP2
Duration : 57mn 23s
Bit rate mode : Constant
Bit rate : 192 Kbps
Channel(s) : 2 channels
Sampling rate : 48.0 KHz
Compression mode : Lossy
Stream size : 78.8 MiB (5%)
Title : NTV+ HD ( Konstantin Genich )
Language : Russian
Default : Yes
Forced : No
Барселона (Барселона) — Милан (Милан)
6 ноября 2013, 23:45 | Стадион Камп Ноу | Главный судья Милорад Мажич
Лига Чемпионов. Группа H - Раунд 4


Автор рипа: Gorlum

Язык комментариев: Профессиональный, Русский, Канал: Футбол HD

Качество: HDTVRip, Формат: mkv, Видео кодек: H.264, Аудио кодек: АС3
Видео: 50 fps, 1280 x 720, bitrate~ 3535 ( crf=22 ), Аудио: 128 kbps, 2 ch, 48,0 КГц - Русский, Георгий Черданцев
3 : 1
58mn 21s + 51mn 41s
Format : Matroska
Format version : Version 4 / Version 2
File size : 1.55 GiB
Duration : 58mn 21s
Overall bit rate : 3 803 Kbps
Encoded date : UTC 2013-11-08 03:22:44
Writing application : mkvmerge v6.1.0 ('Old Devil') built on Mar 2 2013 14:32:37
Writing library : libebml v1.3.0 + libmatroska v1.4.0

Video
ID : 1
Format : AVC
Format/Info : Advanced Video Codec
Format profile : High@L4.1
Format settings, CABAC : Yes
Format settings, ReFrames : 5 frames
Codec ID : V_MPEG4/ISO/AVC
Duration : 58mn 21s
Bit rate : 3 535 Kbps
Width : 1 280 pixels
Height : 720 pixels
Display aspect ratio : 16:9
Frame rate mode : Constant
Frame rate : 50.000 fps
Color space : YUV
Chroma subsampling : 4:2:0
Bit depth : 8 bits
Scan type : Progressive
Bits/(Pixel*Frame) : 0.077
Stream size : 1.44 GiB (93%)
Writing library : x264 core 130 r2273 b3065e6
Encoding settings : cabac=1 / ref=5 / deblock=1:-1:-1 / analyse=0x3:0x113 / me=hex / subme=7 / psy=1 / psy_rd=1.00:0.00 / mixed_ref=1 / me_range=16 / chroma_me=1 / trellis=1 / 8x8dct=1 / cqm=0 / deadzone=21,11 / fast_pskip=1 / chroma_qp_offset=-2 / threads=3 / lookahead_threads=1 / sliced_threads=0 / nr=0 / decimate=1 / interlaced=0 / bluray_compat=0 / constrained_intra=0 / bframes=3 / b_pyramid=2 / b_adapt=2 / b_bias=0 / direct=1 / weightb=1 / open_gop=0 / weightp=2 / keyint=500 / keyint_min=50 / scenecut=40 / intra_refresh=0 / rc_lookahead=50 / rc=crf / mbtree=1 / crf=22.0 / qcomp=0.60 / qpmin=0 / qpmax=69 / qpstep=4 / vbv_maxrate=62500 / vbv_bufsize=78125 / crf_max=0.0 / nal_hrd=none / ip_ratio=1.40 / aq=1:1.00
Default : Yes
Forced : No

Audio
ID : 2
Format : MPEG Audio
Format version : Version 1
Format profile : Layer 2
Codec ID : A_MPEG/L2
Codec ID/Hint : MP2
Duration : 58mn 21s
Bit rate mode : Constant
Bit rate : 192 Kbps
Channel(s) : 2 channels
Sampling rate : 48.0 KHz
Compression mode : Lossy
Stream size : 80.1 MiB (5%)
Title : NTV+ HD ( Aleksey Andronov )
Language : Russian
Default : Yes
Forced : No
Селтик (Глазго) — Милан (Милан)
26 ноября 2013, 23:45 | Стадион Селтик Парк | Главный судья Джюнейт Чакир
Лига Чемпионов. Группа H - Раунд 5


Автор рипа: Gorlum

Язык комментариев: Профессиональный, Русский, Канал: Футбол HD

Качество: HDTVRip, Формат: mkv, Видео кодек: H.264, Аудио кодек: АС3
Видео: 50 fps, 1280 x 720, bitrate~ 3217 ( crf=22 ), Аудио: 128 kbps, 2 ch, 48,0 КГц - Русский, Дмитрий Шнякин
0 : 3
1h 50mn
Format : Matroska
Format version : Version 4 / Version 2
File size : 2.69 GiB
Duration : 1h 50mn
Overall bit rate : 3 478 Kbps
Encoded date : UTC 2013-11-28 15:14:08
Writing application : mkvmerge v6.5.0 ('Isn't she lovely') built on Oct 20 2013 12:50:05
Writing library : libebml v1.3.0 + libmatroska v1.4.1

Video
ID : 1
Format : AVC
Format/Info : Advanced Video Codec
Format profile : High@L4.1
Format settings, CABAC : Yes
Format settings, ReFrames : 5 frames
Codec ID : V_MPEG4/ISO/AVC
Duration : 1h 50mn
Bit rate : 3 217 Kbps
Width : 1 280 pixels
Height : 720 pixels
Display aspect ratio : 16:9
Frame rate mode : Constant
Frame rate : 50.000 fps
Color space : YUV
Chroma subsampling : 4:2:0
Bit depth : 8 bits
Scan type : Progressive
Bits/(Pixel*Frame) : 0.070
Stream size : 2.49 GiB (92%)
Writing library : x264 core 130 r2273 b3065e6
Encoding settings : cabac=1 / ref=5 / deblock=1:-1:-1 / analyse=0x3:0x113 / me=hex / subme=7 / psy=1 / psy_rd=1.00:0.00 / mixed_ref=1 / me_range=16 / chroma_me=1 / trellis=1 / 8x8dct=1 / cqm=0 / deadzone=21,11 / fast_pskip=1 / chroma_qp_offset=-2 / threads=3 / lookahead_threads=1 / sliced_threads=0 / nr=0 / decimate=1 / interlaced=0 / bluray_compat=0 / constrained_intra=0 / bframes=5 / b_pyramid=2 / b_adapt=2 / b_bias=0 / direct=1 / weightb=1 / open_gop=0 / weightp=2 / keyint=500 / keyint_min=50 / scenecut=40 / intra_refresh=0 / rc_lookahead=50 / rc=crf / mbtree=1 / crf=22.0 / qcomp=0.60 / qpmin=0 / qpmax=69 / qpstep=4 / vbv_maxrate=62500 / vbv_bufsize=78125 / crf_max=0.0 / nal_hrd=none / ip_ratio=1.40 / aq=1:1.00
Default : Yes
Forced : No

Audio
ID : 2
Format : MPEG Audio
Format version : Version 1
Format profile : Layer 2
Codec ID : A_MPEG/L2
Codec ID/Hint : MP2
Duration : 1h 50mn
Bit rate mode : Constant
Bit rate : 192 Kbps
Channel count : 2 channels
Sampling rate : 48.0 KHz
Compression mode : Lossy
Stream size : 152 MiB (6%)
Title : NTV+ HD ( Dmitriy Shnajkin )
Language : Russian
Default : Yes
Forced : No
Милан (Милан) — Аякс (Амстердам)
11 декабря 2013, 23:45 | Стадион Джузеппе Меацца (Сан-Сиро) | Главный судья Ховард Уэбб
Лига Чемпионов. Группа H - Раунд 6


Автор рипа: Gorlum

Язык комментариев: Профессиональный, Русский, Канал: Футбол HD

Качество: HDTVRip, Формат: mkv, Видео кодек: H.264, Аудио кодек: АС3
Видео: 50 fps, 1280 x 720, bitrate~ 3906 ( crf=21 ), Аудио: 128 kbps, 2 ch, 48,0 КГц - Русский, Александр Шмурнов
0 : 0
1h 49mn
FFormat : Matroska
Format version : Version 4 / Version 2
File size : 3.19 GiB
Duration : 1h 49mn
Overall bit rate : 4 182 Kbps
Encoded date : UTC 2013-12-12 15:19:56
Writing application : mkvmerge v6.5.0 ('Isn't she lovely') built on Oct 20 2013 12:50:05
Writing library : libebml v1.3.0 + libmatroska v1.4.1

Video
ID : 1
Format : AVC
Format/Info : Advanced Video Codec
Format profile : High@L4.1
Format settings, CABAC : Yes
Format settings, ReFrames : 5 frames
Codec ID : V_MPEG4/ISO/AVC
Duration : 1h 49mn
Bit rate : 3 906 Kbps
Width : 1 280 pixels
Height : 720 pixels
Display aspect ratio : 16:9
Frame rate mode : Constant
Frame rate : 50.000 fps
Color space : YUV
Chroma subsampling : 4:2:0
Bit depth : 8 bits
Scan type : Progressive
Bits/(Pixel*Frame) : 0.085
Stream size : 2.98 GiB (93%)
Writing library : x264 core 138 r2358 9e941d1
Encoding settings : cabac=1 / ref=5 / deblock=1:-1:-1 / analyse=0x3:0x113 / me=hex / subme=7 / psy=1 / psy_rd=1.00:0.00 / mixed_ref=1 / me_range=16 / chroma_me=1 / trellis=1 / 8x8dct=1 / cqm=0 / deadzone=21,11 / fast_pskip=1 / chroma_qp_offset=-2 / threads=6 / lookahead_threads=1 / sliced_threads=0 / nr=0 / decimate=1 / interlaced=0 / bluray_compat=0 / constrained_intra=0 / bframes=3 / b_pyramid=2 / b_adapt=2 / b_bias=0 / direct=1 / weightb=1 / open_gop=0 / weightp=2 / keyint=500 / keyint_min=50 / scenecut=40 / intra_refresh=0 / rc_lookahead=50 / rc=crf / mbtree=1 / crf=21.0 / qcomp=0.60 / qpmin=0 / qpmax=69 / qpstep=4 / vbv_maxrate=62500 / vbv_bufsize=78125 / crf_max=0.0 / nal_hrd=none / ip_ratio=1.40 / aq=1:1.00
Default : Yes
Forced : No

Audio
ID : 2
Format : MPEG Audio
Format version : Version 1
Format profile : Layer 2
Codec ID : A_MPEG/L2
Codec ID/Hint : MP2
Duration : 1h 49mn
Bit rate mode : Constant
Bit rate : 192 Kbps
Channel count : 2 channels
Sampling rate : 48.0 KHz
Compression mode : Lossy
Stream size : 150 MiB (5%)
Title : NTV+ HD ( Aleksandr Shmurnov )
Language : Russian
Default : Yes
Forced : No
Милан (Милан) — Атлетико (Мадрид)
19 февраля 2014, 23:45 | Стадион Джузеппе Меацца (Сан-Сиро) | Главный судья Педру Проэнса
Лига Чемпионов. 1/8 финала - Первый матч


Автор рипа: Gorlum

Язык комментариев: Профессиональный, Русский, Канал: Футбол HD

Качество: HDTVRip, Формат: mkv, Видео кодек: H.264, Аудио кодек: АС3
Видео: 50 fps, 1280 x 720, bitrate~ 4414 ( crf=21 ), Аудио: 128 kbps, 2 ch, 48,0 КГц - Русский, Станислав Минин
0 : 1
55mn 13s + 52mn 59s
Format : Matroska
Format version : Version 4 / Version 2
File size : 1.81 GiB
Duration : 55mn 13s
Overall bit rate : 4 699 Kbps
Encoded date : UTC 2014-02-20 03:11:32
Writing application : mkvmerge v6.1.0 ('Old Devil') built on Mar 2 2013 14:32:37
Writing library : libebml v1.3.0 + libmatroska v1.4.0

Video
ID : 1
Format : AVC
Format/Info : Advanced Video Codec
Format profile : High@L4.1
Format settings, CABAC : Yes
Format settings, ReFrames : 5 frames
Codec ID : V_MPEG4/ISO/AVC
Duration : 55mn 13s
Bit rate : 4 414 Kbps
Width : 1 280 pixels
Height : 720 pixels
Display aspect ratio : 16:9
Frame rate mode : Constant
Frame rate : 50.000 fps
Color space : YUV
Chroma subsampling : 4:2:0
Bit depth : 8 bits
Scan type : Progressive
Bits/(Pixel*Frame) : 0.096
Stream size : 1.70 GiB (94%)
Writing library : x264 core 138 r2358 9e941d1
Encoding settings : cabac=1 / ref=5 / deblock=1:-1:-1 / analyse=0x3:0x113 / me=umh / subme=8 / psy=1 / psy_rd=1.00:0.00 / mixed_ref=1 / me_range=16 / chroma_me=1 / trellis=1 / 8x8dct=1 / cqm=0 / deadzone=21,11 / fast_pskip=1 / chroma_qp_offset=-2 / threads=6 / lookahead_threads=1 / sliced_threads=0 / nr=0 / decimate=1 / interlaced=0 / bluray_compat=0 / constrained_intra=0 / bframes=3 / b_pyramid=2 / b_adapt=2 / b_bias=0 / direct=3 / weightb=1 / open_gop=0 / weightp=2 / keyint=500 / keyint_min=50 / scenecut=40 / intra_refresh=0 / rc_lookahead=50 / rc=crf / mbtree=1 / crf=21.0 / qcomp=0.60 / qpmin=0 / qpmax=69 / qpstep=4 / vbv_maxrate=62500 / vbv_bufsize=78125 / crf_max=0.0 / nal_hrd=none / ip_ratio=1.40 / aq=1:1.00
Default : Yes
Forced : No

Audio
ID : 2
Format : MPEG Audio
Format version : Version 1
Format profile : Layer 2
Codec ID : A_MPEG/L2
Codec ID/Hint : MP2
Duration : 55mn 13s
Bit rate mode : Constant
Bit rate : 192 Kbps
Channel(s) : 2 channels
Sampling rate : 48.0 KHz
Compression mode : Lossy
Stream size : 75.8 MiB (4%)
Title : NTV+ HD ( Stanislav Minin )
Language : Russian
Default : Yes
Forced : No
Атлетико (Мадрид) — Милан (Милан)
11 марта 2014, 23:45 | Стадион Висенте Кальдерон | Главный судья Марк Клаттенбург
Лига Чемпионов. 1/8 финала - Ответный матч


Автор рипа: Gorlum

Язык комментариев: Профессиональный, Русский, Канал: Футбол HD

Качество: HDTVRip, Формат: mkv, Видео кодек: H.264, Аудио кодек: АС3
Видео: 50 fps, 1280 x 720, bitrate~ 5168 ( crf=21 ), Аудио: 128 kbps, 2 ch, 48,0 КГц - Русский, Роман Гутцайт
4 : 1
55mn 11s + 52mn 59s
Format : Matroska
Format version : Version 4 / Version 2
File size : 2.11 GiB
Duration : 55mn 11s
Overall bit rate : 5 469 Kbps
Encoded date : UTC 2014-03-12 12:19:57
Writing application : mkvmerge v6.1.0 ('Old Devil') built on Mar 2 2013 14:32:37
Writing library : libebml v1.3.0 + libmatroska v1.4.0

Video
ID : 1
Format : AVC
Format/Info : Advanced Video Codec
Format profile : High@L4.1
Format settings, CABAC : Yes
Format settings, ReFrames : 5 frames
Codec ID : V_MPEG4/ISO/AVC
Duration : 55mn 11s
Bit rate : 5 168 Kbps
Width : 1 280 pixels
Height : 720 pixels
Display aspect ratio : 16:9
Frame rate mode : Constant
Frame rate : 50.000 fps
Color space : YUV
Chroma subsampling : 4:2:0
Bit depth : 8 bits
Scan type : Progressive
Bits/(Pixel*Frame) : 0.112
Stream size : 1.99 GiB (94%)
Writing library : x264 core 130 r2273 b3065e6
Encoding settings : cabac=1 / ref=5 / deblock=1:-1:-1 / analyse=0x3:0x113 / me=umh / subme=8 / psy=1 / psy_rd=1.00:0.00 / mixed_ref=1 / me_range=16 / chroma_me=1 / trellis=1 / 8x8dct=1 / cqm=0 / deadzone=21,11 / fast_pskip=1 / chroma_qp_offset=-2 / threads=3 / lookahead_threads=1 / sliced_threads=0 / nr=0 / decimate=1 / interlaced=0 / bluray_compat=0 / constrained_intra=0 / bframes=3 / b_pyramid=2 / b_adapt=2 / b_bias=0 / direct=3 / weightb=1 / open_gop=0 / weightp=2 / keyint=500 / keyint_min=50 / scenecut=40 / intra_refresh=0 / rc_lookahead=50 / rc=crf / mbtree=1 / crf=21.0 / qcomp=0.60 / qpmin=0 / qpmax=69 / qpstep=4 / vbv_maxrate=62500 / vbv_bufsize=78125 / crf_max=0.0 / nal_hrd=none / ip_ratio=1.40 / aq=1:1.00
Default : Yes
Forced : No

Audio
ID : 2
Format : MPEG Audio
Format version : Version 1
Format profile : Layer 2
Codec ID : A_MPEG/L2
Codec ID/Hint : MP2
Duration : 55mn 11s
Bit rate mode : Constant
Bit rate : 192 Kbps
Channel(s) : 2 channels
Sampling rate : 48.0 KHz
Compression mode : Lossy
Stream size : 75.8 MiB (4%)
Title : NTV+ HD ( Roman Gutzayt )
Language : Russian
Default : Yes
Forced : No

_________________


Последний раз редактировалось: Gorlum (2014-03-12 18:06), всего редактировалось 18 раз(а)
Profile PM

Gorlum


Стаж: 7 лет 7 месяцев

Сообщений: 1879

Россия

Торрент-статистика

post 29-Авг-2013 20:01 (спустя 7 дней)

Quote


[Pack] Лига Чемпионов 2012-13 | Все матчи АС МИЛАН в 720p / 50 fps | Группа С - Плей-офф | НТВ+ HD [2012/13, H.264, 50 fps, RU, HDTVRip]
http://rgfootball.net/viewtopic.php?t=54899

Лига Чемпионов 2011-12 | Все матчи АС МИЛАН в 720p | НТВ+ HD, Sky Calcio HD [2011/12, 50 fps, RU/ITA, HDTVRip] Добавил 1/4 финала. Первый матч. Милан (Милан) — Барселона (Барселона)
http://rgfootball.net/viewtopic.php?t=22937

Лига Чемпионов 2010-11 / Все матчи Милана в HD 720p [2010, HD, 720p, ITA/RU, HDTVRip]
http://rgfootball.net/viewtopic.php?t=1366


_________________
Profile PM

Gorlum


Стаж: 7 лет 7 месяцев

Сообщений: 1879

Россия

Торрент-статистика

post 20-Сен-2013 19:34 (спустя 21 день)

Quote


Группа H - Раунд 1. 18 сентября 2013, 22:45. Милан (Милан) — Селтик (Глазго)

перенесите

_________________
Profile PM

post 20-Сен-2013 21:11 (спустя 1 час 37 минут)


Топик был перенесен из форума Предварительные раунды в форум Групповой турнир

dav7dbecks
 

Gorlum


Стаж: 7 лет 7 месяцев

Сообщений: 1879

Россия

Торрент-статистика

post 04-Окт-2013 19:58 (спустя 14 дней)

Quote


Группа H - Раунд 2. 1 октября 2013, 22:45. Аякс (Амстердам) — Милан (Милан)

от Sky Calcio HD

_________________
Profile PM

nordal


Стаж: 5 лет 8 месяцев

Сообщений: 34

Белоруссия

Торрент-статистика

post 28-Окт-2013 20:15 (спустя 24 дня)

Quote


Встаньте на раздачу, плиз. Уже 4 дня как не могу скачать игру
Profile PM

Gorlum


Стаж: 7 лет 7 месяцев

Сообщений: 1879

Россия

Торрент-статистика

post 08-Ноя-2013 17:51 (спустя 10 дней)

Quote


Группа H - Раунд 4. 6 ноября 2013, 23:45. Барселона (Барселона) — Милан (Милан)

_________________
Profile PM

Gorlum


Стаж: 7 лет 7 месяцев

Сообщений: 1879

Россия

Торрент-статистика

post 12-Дек-2013 19:46 (спустя 1 месяц 4 дня)

Quote


Группа H - Раунд 6. 11 декабря 2013, 23:45. Милан (Милан) — Аякс (Амстердам)

уф ...

_________________
Profile PM

Gorlum


Стаж: 7 лет 7 месяцев

Сообщений: 1879

Россия

Торрент-статистика

post 20-Фев-2014 18:27 (спустя 2 месяца 7 дней)

Quote


перенесите пож-та

_________________
Profile PM
Ответить на тему