Чемпионат Испании 2013-14 / Примера / 29-й тур / Реал Мадрид - Барселона / SAT Feed [23.03.2014, HD, 720p, H264, STD, SAT]

Ответить на тему

Автор Сообщение

Chameleon


Стаж: 8 лет 11 месяцев

Сообщений: 4123

Откуда: Tyumen

Россия

Торрент-статистика

post 16-Апр-2016 16:28

Quote




Страна: Испания.
Турнир: Чемпионат Испании 2013-14. Примера. 29-й тур.
Участники матча: Реал Мадрид - Барселона.
Дата матча: 23.03.2014
Место проведения: Сантьяго Бернабеу, Мадрид, Испания.
Телеканал: SAT Feed
Язык комментариев: Отсутствуют (Интершум)
Продолжительность: ***
Формат видео: MP4
Видео кодек, разрешение, ...: H264, 1280x720, ~3 900 kbps, 25 fps
Аудио кодек, ...: AAC, 192 kbps, 2 ch, 48 kHz
02:25:33

Код:

Format                      : MPEG-4
Format profile              : Base Media / Version 2
Codec ID                    : mp42
File size                   : 3.18 GiB
Duration                    : 2h 25mn
Overall bit rate mode       : Variable
Overall bit rate            : 3 125 Kbps
Encoded date                : UTC 2014-04-29 03:53:31
Tagged date                 : UTC 2014-04-29 03:53:31
gsst                        : 0
gstd                        : 8733418
gssd                        : B4A7DD121HH1398872958044255
gshh                        : r1---sn-5hn7su7l.googlevideo.com

Video
ID                          : 1
Format                      : AVC
Format/Info                 : Advanced Video Codec
Format profile              : High@L3.1
Format settings, CABAC      : Yes
Format settings, ReFrames   : 1 frame
Codec ID                    : avc1
Codec ID/Info               : Advanced Video Coding
Duration                    : 2h 25mn
Bit rate                    : 2 931 Kbps
Maximum bit rate            : 8 155 Kbps
Width                       : 1 280 pixels
Height                      : 720 pixels
Display aspect ratio        : 16:9
Frame rate mode             : Constant
Frame rate                  : 25.000 fps
Color space                 : YUV
Chroma subsampling          : 4:2:0
Bit depth                   : 8 bits
Scan type                   : Progressive
Bits/(Pixel*Frame)          : 0.127
Stream size                 : 2.98 GiB (94%)
Tagged date                 : UTC 2014-04-29 04:06:02

Audio
ID                          : 2
Format                      : AAC
Format/Info                 : Advanced Audio Codec
Format profile              : LC
Codec ID                    : 40
Duration                    : 2h 25mn
Bit rate mode               : Variable
Bit rate                    : 192 Kbps
Maximum bit rate            : 201 Kbps
Channel(s)                  : 2 channels
Channel positions           : Front: L R
Sampling rate               : 44.1 KHz
Compression mode            : Lossy
Stream size                 : 200 MiB (6%)
Title                       : IsoMedia File Produced by Google, 5-11-2011
Encoded date                : UTC 2014-04-29 04:00:39
Tagged date                 : UTC 2014-04-29 04:06:02
3 - 4

Скриншоты:

_________________
Продам все матчи чемпионата Австралии, Ирана, Катара, Коста-Рики, Венесуэлы, Китая, Южной Кореи. Матчи Бразильских штатов.
Продам матчи. Подробности в ЛС.
PayPal -> chameleon13@ro.ru
Skrill -> chameleon13@ro.ru
Yandex -> 410015480601949
Profile PM
Ответить на тему