Чемпионат Испании 2013-14 / Primera Division / 10-й тур / Барселона - Реал Мадрид / Футбол HD [26.10.2013, HD, 720p, H264, ES-EN-IT-DU-RU, SAT]

Ответить на тему

Автор Сообщение

Chameleon


Стаж: 8 лет 2 месяца

Сообщений: 4123

Откуда: Tyumen

Россия

Торрент-статистика

post 08-Июн-2017 14:43

Quote



Чемпионат Испании 2013-14 / Primera Division / 10-й тур / Барселона - Реал Мадрид


Дата матча: 26.10.2013
Телеканал: Футбол HD
Комментарий: Профессиональный (многоголосный)
Язык комментариев: Испанский, Английский, Итальянский, Нидерландский, Русский
Продолжительность: 01:41:50
Формат видео: MKV
Видео: H264 (Main@L3.2), 1280x720, 3 426 Kbps, 50.000 fps
Аудио 1: AC-3, 192 Kbps, 2 ch, 48.0 KHz [ES]
Аудио 2: AC-3, 192 Kbps, 2 ch, 48.0 KHz [EN]
Аудио 3: AC-3, 192 Kbps, 2 ch, 48.0 KHz [EN]
Аудио 4: AC-3, 192 Kbps, 2 ch, 48.0 KHz [EN]
Аудио 5: AC-3, 192 Kbps, 2 ch, 48.0 KHz [EN]
Аудио 6: AC-3, 192 Kbps, 2 ch, 48.0 KHz [IT]
Аудио 7: AC-3, 192 Kbps, 2 ch, 48.0 KHz [DU]
Аудио 8: AC-3, 128 Kbps, 2 ch, 48.0 KHz [RU]

Код:

Format                      : Matroska
Format version              : Version 4 / Version 2
File size                   : 3.56 GiB
Duration                    : 1h 41mn
Overall bit rate mode       : Variable
Overall bit rate            : 4 997 Kbps
Encoded date                : UTC 2013-10-28 00:31:43
Writing application         : mkvmerge v6.0.0 ('Coming Up For Air') built on Jan 20 2013 09:52:00
Writing library             : libebml v1.3.0 + libmatroska v1.4.0

Video
ID                          : 1
Format                      : AVC
Format/Info                 : Advanced Video Codec
Format profile              : Main@L3.2
Format settings, CABAC      : Yes
Format settings, ReFrames   : 4 frames
Codec ID                    : V_MPEG4/ISO/AVC
Duration                    : 1h 41mn
Bit rate mode               : Variable
Bit rate                    : 3 426 Kbps
Maximum bit rate            : 40.0 Mbps
Width                       : 1 280 pixels
Height                      : 720 pixels
Display aspect ratio        : 16:9
Frame rate mode             : Constant
Frame rate                  : 50.000 fps
Color space                 : YUV
Chroma subsampling          : 4:2:0
Bit depth                   : 8 bits
Scan type                   : Progressive
Bits/(Pixel*Frame)          : 0.074
Stream size                 : 2.44 GiB (69%)
Title                       : By SppccTeam
Language                    : English
Default                     : Yes
Forced                      : No
Color range                 : Limited
Color primaries             : BT.709
Transfer characteristics    : BT.709
Matrix coefficients         : BT.709

Audio #1
ID                          : 2
Format                      : AC-3
Format/Info                 : Audio Coding 3
Mode extension              : CM (complete main)
Format settings, Endianness : Big
Codec ID                    : A_AC3
Duration                    : 1h 41mn
Bit rate mode               : Constant
Bit rate                    : 192 Kbps
Channel(s)                  : 2 channels
Channel positions           : Front: L R
Sampling rate               : 48.0 KHz
Compression mode            : Lossy
Stream size                 : 140 MiB (4%)
Title                       : Canal+ Liga HD
Language                    : Spanish
Default                     : Yes
Forced                      : No

Audio #2
ID                          : 3
Format                      : AC-3
Format/Info                 : Audio Coding 3
Mode extension              : CM (complete main)
Format settings, Endianness : Big
Codec ID                    : A_AC3
Duration                    : 1h 41mn
Bit rate mode               : Constant
Bit rate                    : 192 Kbps
Channel(s)                  : 2 channels
Channel positions           : Front: L R
Sampling rate               : 48.0 KHz
Compression mode            : Lossy
Stream size                 : 140 MiB (4%)
Title                       : BeIN Ñ USA
Language                    : Spanish
Default                     : No
Forced                      : No

Audio #3
ID                          : 4
Format                      : AC-3
Format/Info                 : Audio Coding 3
Mode extension              : CM (complete main)
Format settings, Endianness : Big
Codec ID                    : A_AC3
Duration                    : 1h 41mn
Bit rate mode               : Constant
Bit rate                    : 192 Kbps
Channel(s)                  : 2 channels
Channel positions           : Front: L R
Sampling rate               : 48.0 KHz
Compression mode            : Lossy
Stream size                 : 140 MiB (4%)
Title                       : Sky Sports 2 HD
Language                    : English
Default                     : No
Forced                      : No

Audio #4
ID                          : 5
Format                      : AC-3
Format/Info                 : Audio Coding 3
Mode extension              : CM (complete main)
Format settings, Endianness : Big
Codec ID                    : A_AC3
Duration                    : 1h 41mn
Bit rate mode               : Constant
Bit rate                    : 192 Kbps
Channel(s)                  : 2 channels
Channel positions           : Front: L R
Sampling rate               : 48.0 KHz
Compression mode            : Lossy
Stream size                 : 140 MiB (4%)
Title                       : JSC HD2
Language                    : English
Default                     : No
Forced                      : No

Audio #5
ID                          : 6
Format                      : AC-3
Format/Info                 : Audio Coding 3
Mode extension              : CM (complete main)
Format settings, Endianness : Big
Codec ID                    : A_AC3
Duration                    : 1h 41mn
Bit rate mode               : Constant
Bit rate                    : 192 Kbps
Channel(s)                  : 2 channels
Channel positions           : Front: L R
Sampling rate               : 48.0 KHz
Compression mode            : Lossy
Stream size                 : 140 MiB (4%)
Title                       : BeIN Sport HD USA
Language                    : English
Default                     : No
Forced                      : No

Audio #6
ID                          : 7
Format                      : AC-3
Format/Info                 : Audio Coding 3
Mode extension              : CM (complete main)
Format settings, Endianness : Big
Codec ID                    : A_AC3
Duration                    : 1h 41mn
Bit rate mode               : Constant
Bit rate                    : 192 Kbps
Channel(s)                  : 2 channels
Channel positions           : Front: L R
Sampling rate               : 48.0 KHz
Compression mode            : Lossy
Stream size                 : 140 MiB (4%)
Title                       : Fox Sport HD
Language                    : Italian
Default                     : No
Forced                      : No

Audio #7
ID                          : 8
Format                      : AC-3
Format/Info                 : Audio Coding 3
Mode extension              : CM (complete main)
Format settings, Endianness : Big
Codec ID                    : A_AC3
Duration                    : 1h 41mn
Bit rate mode               : Constant
Bit rate                    : 192 Kbps
Channel(s)                  : 2 channels
Channel positions           : Front: L R
Sampling rate               : 48.0 KHz
Compression mode            : Lossy
Stream size                 : 140 MiB (4%)
Title                       : Sport Nl
Language                    : Dutch
Default                     : No
Forced                      : No

Audio #8
ID                          : 9
Format                      : AC-3
Format/Info                 : Audio Coding 3
Mode extension              : CM (complete main)
Format settings, Endianness : Big
Codec ID                    : A_AC3
Duration                    : 1h 41mn
Bit rate mode               : Constant
Bit rate                    : 128 Kbps
Channel(s)                  : 2 channels
Channel positions           : Front: L R
Sampling rate               : 48.0 KHz
Compression mode            : Lossy
Stream size                 : 93.2 MiB (3%)
Title                       : NTV+
Language                    : Russian
Default                     : No
Forced                      : No


_________________
Продам все матчи чемпионата Австралии, Ирана, Катара, Коста-Рики, Венесуэлы, Китая, Южной Кореи. Матчи Бразильских штатов.
Продам матчи. Подробности в ЛС.
PayPal -> chameleon13@ro.ru
Skrill -> chameleon13@ro.ru
Yandex -> 410015480601949
Profile PM
Ответить на тему