Суперкубок УЕФА 2017. Реал Мадрид (Мадрид, Испания) – Манчестер Юнайтед (Манчестер, Англия) / Матч ТВ HD [08.08.2017, 720p 50 fps, H.264, RU/INT, HDTVRip]

Ответить на тему

Автор Сообщение

CSKAfan


Стаж: 5 лет 1 месяц

Сообщений: 12232

Казахстан

Торрент-статистика

post 09-Авг-2017 01:37

Quote


Реал Мадрид (Мадрид, Испания) – Манчестер Юнайтед (Манчестер, Англия)


Год выпуска: 2017
Вид спорта: Футбол
Комментарий: Тимур Журавель
Язык комментариев: Русский, интершум
Описание: 08 августа 2017 года, вторник. 21:45 МСК
Суперкубок УЕФА 2017
Стадион: Филип II Арена (Скопье, Македония) , вместимость: 32580
Главный судья: Джанлука Рокки (Флоренция, Италия)


Релиз:
Качество: HDTVRip [preset slower]
Формат: MKV
Видео кодек: H.264
Аудио кодек: AC3
Видео: 1280x720 (16:9), 50 fps, H.264 ~4 000 Kbps avg
Аудио: 48 kHz, Audio Coding 3, 2 ch, ~128.00 kbps avg
02:15:30
2 : 1
Format : Matroska
Format version : Version 4 / Version 2
File size : 4.14 GiB
Duration : 2h 15mn
Overall bit rate : 4 369 Kbps
Writing application : Lavf57.76.100
Writing library : Lavf57.76.100

Video
ID : 1
Format : AVC
Format/Info : Advanced Video Codec
Format profile : High@L4.1
Format settings, CABAC : Yes
Format settings, ReFrames : 8 frames
Codec ID : V_MPEG4/ISO/AVC
Bit rate : 4 100 Kbps
Width : 1 280 pixels
Height : 720 pixels
Display aspect ratio : 16:9
Frame rate mode : Variable
Color space : YUV
Chroma subsampling : 4:2:0
Bit depth : 8 bits
Scan type : Progressive
Writing library : x264 core 152 r2851 ba24899
Encoding settings : cabac=1 / ref=8 / deblock=1:0:0 / analyse=0x3:0x133 / me=umh / subme=9 / psy=1 / psy_rd=1.00:0.00 / mixed_ref=1 / me_range=16 / chroma_me=1 / trellis=2 / 8x8dct=1 / cqm=0 / deadzone=21,11 / fast_pskip=1 / chroma_qp_offset=-2 / threads=22 / lookahead_threads=1 / sliced_threads=0 / nr=0 / decimate=1 / interlaced=0 / bluray_compat=0 / constrained_intra=0 / bframes=3 / b_pyramid=2 / b_adapt=2 / b_bias=0 / direct=3 / weightb=1 / open_gop=0 / weightp=2 / keyint=250 / keyint_min=25 / scenecut=40 / intra_refresh=0 / rc_lookahead=60 / rc=abr / mbtree=1 / bitrate=4100 / ratetol=1.0 / qcomp=0.60 / qpmin=0 / qpmax=69 / qpstep=4 / ip_ratio=1.40 / aq=1:1.00
Default : Yes
Forced : No
DURATION : 02:15:30.760000000

Audio #1
ID : 2
Format : AC-3
Format/Info : Audio Coding 3
Mode extension : CM (complete main)
Format settings, Endianness : Big
Codec ID : A_AC3
Duration : 2h 15mn
Bit rate mode : Constant
Bit rate : 128 Kbps
Channel(s) : 2 channels
Channel positions : Front: L R
Sampling rate : 48.0 KHz
Bit depth : 16 bits
Compression mode : Lossy
Delay relative to video : 12ms
Stream size : 124 MiB (3%)
Writing library : Lavc57.102.100 ac3
Language : Russian
Default : Yes
Forced : No
DURATION : 02:15:29.703000000

Audio #2
ID : 3
Format : AC-3
Format/Info : Audio Coding 3
Mode extension : CM (complete main)
Format settings, Endianness : Big
Codec ID : A_AC3
Duration : 2h 15mn
Bit rate mode : Constant
Bit rate : 192 Kbps
Channel(s) : 2 channels
Channel positions : Front: L R
Sampling rate : 48.0 KHz
Bit depth : 16 bits
Compression mode : Lossy
Delay relative to video : 12ms
Stream size : 186 MiB (4%)
Writing library : Lavc57.102.100 ac3
Language : Russian
Default : Yes
Forced : No
DURATION : 02:15:29.727000000


_________________
По вопросам HD писать в ЛС
Qiwi 77759946920


Последний раз редактировалось: CSKAfan (2017-08-09 04:58), всего редактировалось 1 раз
Profile PM

CSKAfan


Стаж: 5 лет 1 месяц

Сообщений: 12232

Казахстан

Торрент-статистика

post 09-Авг-2017 01:49 (спустя 12 минут)

Quote


Рекламу в середине проворонил, зато картинка четкая

_________________
По вопросам HD писать в ЛС
Qiwi 77759946920
Profile PM

-=ShakhtyoR=-


Стаж: 7 лет 10 месяцев

Сообщений: 5714

Откуда: Донецк

Сомали

Торрент-статистика

post 09-Авг-2017 02:08 (спустя 18 минут)

Quote


CSKAfan писал(а):

Рекламу в середине проворонил, зато картинка четкая
Ну как так?
Profile PM

JPriest


Стаж: 7 лет 10 месяцев

Сообщений: 113

СССР

Торрент-статистика

post 09-Авг-2017 08:38 (спустя 6 часов)

Quote


CSKAfan
Привет! С наступившим!
Скажи, а FHD в этом сезоне от тебя не ждать что ли?

_________________
Profile PM

CSKAfan


Стаж: 5 лет 1 месяц

Сообщений: 12232

Казахстан

Торрент-статистика

post 09-Авг-2017 09:01 (спустя 22 минуты)

Quote


JPriest
что именно? Испанию? за спасибо нет, увы.

_________________
По вопросам HD писать в ЛС
Qiwi 77759946920
Profile PM

JPriest


Стаж: 7 лет 10 месяцев

Сообщений: 113

СССР

Торрент-статистика

post 09-Авг-2017 09:52 (спустя 50 минут)

Quote


CSKAfan
А.., то есть это важно, какой чемпионат, да?
Ну меня в FHD интересует только Англия.

_________________
Profile PM
Ответить на тему