Чемпионат Бразилии 2019 / Serie A / 9-й тур / Обзор матчей / PFC [23.06.2019, 720i, H.264, POR, SD, SAT]

Ответить на тему

Автор Сообщение

K. Valera


Стаж: 7 лет 3 месяца

Сообщений: 882

Украина

Торрент-статистика

post 24-Июн-2019 10:16

Quote


Чемпионат Бразилии 2019 / Serie A / 9-й тур / Обзор матчей / PFC




Год выпуска: 23.06.2019
Вид : Футбол
Релиз:
Aвтор рипа: K. Valera
Продолжительность: 00:49:20
Канал:
Комментарий: Профессиональный
Язык комментариев: Бразильский португальский
Качество: SD / Формат: *.ts / Видео Кодек: AVC / Аудио Кодек: MPEG Audio
Видео: 720x576 (16/9), 25,000 fps, 2430 kb/s
Аудио: 128 Kbps, 48 KHz, MPEG Audio 2.0 channels. Portuguesa do brasil
Запись видео: Openbox SX6 HD
Программа корректировки видео: Cypheros TS-Doctor ver. 1.2.22

Код:

General
ID                             : 103 (0x67)
Complete name                  : D:\d\Видео\Giro da Rodada 23.06.2019 PFC.ts
Format                         : MPEG-TS
File size                      : 950 MiB
Duration                       : 49 min 20 s
Overall bit rate mode          : Variable
Overall bit rate               : 2 693 kb/s

Video
ID                             : 6049 (0x17A1)
Menu ID                        : 367 (0x16F)
Format                         : AVC
Format/Info                    : Advanced Video Codec
Format profile                 : Main@L3
Format settings, CABAC         : Yes
Format settings, RefFrames     : 4 frames
Codec ID                       : 27
Duration                       : 49 min 20 s
Bit rate                       : 2 430 kb/s
Width                          : 720 pixels
Height                         : 576 pixels
Display aspect ratio           : 16:9
Frame rate                     : 25.000 FPS
Standard                       : Component
Color space                    : YUV
Chroma subsampling             : 4:2:0
Bit depth                      : 8 bits
Scan type                      : Interlaced
Scan type, store method        : Separated fields
Scan order                     : Top Field First
Bits/(Pixel*Frame)             : 0.234
Stream size                    : 858 MiB (90%)
Color range                    : Limited
Color primaries                : BT.601 PAL
Transfer characteristics       : BT.470 System B, BT.470 System G
Matrix coefficients            : BT.601

Audio
ID                             : 6050 (0x17A2)
Menu ID                        : 367 (0x16F)
Format                         : MPEG Audio
Format version                 : Version 1
Format profile                 : Layer 2
Codec ID                       : 4
Duration                       : 49 min 20 s
Bit rate mode                  : Constant
Bit rate                       : 128 kb/s
Channel(s)                     : 2 channels
Sampling rate                  : 48.0 kHz
Compression mode               : Lossy
Delay relative to video        : 120 ms
Stream size                    : 45.2 MiB (5%)
Скриншоты

_________________
Bitcoin: 1C5RGE4438bq3VfVUEfcw63rmYrb6Sgr29
Profile PM

Спарт


Стаж: 8 лет 8 месяцев

Сообщений: 120

Россия

Торрент-статистика

post 27-Июн-2019 22:26 (спустя 3 дня)

Quote


Большое спасибо! Есть надежда что обзоры еще будут?
Profile PM
Ответить на тему